<?xml version="1.0" standalone="no"?>
<!DOCTYPE svg PUBLIC "-//W3C//DTD SVG 1.1//EN" "http://www.w3.org/Graphics/SVG/1.1/DTD/svg11.dtd" >
<svg xmlns="http://www.w3.org/2000/svg" xmlns:xlink="http://www.w3.org/1999/xlink" version="1.1">
<metadata>
Created by FontForge 20150318 at Fri Sep 18 11:21:49 2015
 By uniteet7
Digitized data copyright (c) 2012-2015, The Mozilla Foundation and Telefonica S.A.
</metadata>
<defs>
<font id="FiraSans-ExtraLight" horiz-adv-x="560" >
  <font-face 
    font-family="Fira Sans ExtraLight"
    font-weight="250"
    font-stretch="normal"
    units-per-em="1000"
    panose-1="2 11 4 3 5 0 0 2 0 4"
    ascent="800"
    descent="-200"
    x-height="522"
    cap-height="684"
    bbox="-736 -350 1360 1050"
    underline-thickness="50"
    underline-position="-50"
    unicode-range="U+000D-1F310"
  />
<missing-glyph horiz-adv-x="666" 
d="M543 -350h-420v1400h420v-1400zM178 998v-1296h311v1296h-311zM409.5 419q25.5 -32 25.5 -83q0 -53 -22.5 -82t-72.5 -36v-45q0 -11 -7.5 -17.5t-17.5 -6.5t-17.5 6.5t-7.5 17.5v84q53 3 72 19.5t19 57.5q0 33 -13 51t-48 18q-29 0 -52 -11q-8 -3 -13 -3q-11 0 -17.5 6.5
t-6.5 16.5q0 19 29.5 29t63.5 10q60 0 85.5 -32zM340 110q10 -10 10 -25q0 -16 -10 -26.5t-25 -10.5t-25 10.5t-10 26.5q0 15 10 25t25 10t25 -10z" />
    <glyph glyph-name="fi" unicode="fi" horiz-adv-x="559" 
d="M402 704l-17 -35q-32 15 -63 23.5t-66 8.5q-50 0 -74 -21t-24 -73v-85h291v-522h-46v483h-245v-483h-46v483h-87v39h87v90q0 63 37 96t105 33q76 0 148 -37z" />
    <glyph glyph-name="fl" unicode="fl" horiz-adv-x="580" 
d="M545 2q-30 -13 -56 -13q-41 0 -63 24t-22 72v592q-38 13 -70 18.5t-70 5.5q-54 0 -80 -21.5t-26 -69.5v-88h141l-6 -39h-135v-483h-46v483h-87v39h87v90q0 61 38.5 95t110.5 34q39 0 70.5 -6t72.5 -18l46 6v-639q0 -28 11 -41t35 -13q17 0 36 7z" />
    <glyph glyph-name=".notdef" horiz-adv-x="666" 
d="M543 -350h-420v1400h420v-1400zM178 998v-1296h311v1296h-311zM409.5 419q25.5 -32 25.5 -83q0 -53 -22.5 -82t-72.5 -36v-45q0 -11 -7.5 -17.5t-17.5 -6.5t-17.5 6.5t-7.5 17.5v84q53 3 72 19.5t19 57.5q0 33 -13 51t-48 18q-29 0 -52 -11q-8 -3 -13 -3q-11 0 -17.5 6.5
t-6.5 16.5q0 19 29.5 29t63.5 10q60 0 85.5 -32zM340 110q10 -10 10 -25q0 -16 -10 -26.5t-25 -10.5t-25 10.5t-10 26.5q0 15 10 25t25 10t25 -10z" />
    <glyph glyph-name="null" horiz-adv-x="0" 
 />
    <glyph glyph-name="nonmarkingreturn" unicode="&#xd;" horiz-adv-x="284" 
 />
    <glyph glyph-name="space" unicode=" " horiz-adv-x="284" 
 />
    <glyph glyph-name="A" unicode="A" horiz-adv-x="562" 
d="M429 192h-298l-63 -192h-48l231 684h60l231 -684h-51zM415 234l-134 411l-136 -411h270z" />
    <glyph glyph-name="Aacute" unicode="&#xc1;" horiz-adv-x="562" 
d="M429 192h-298l-63 -192h-48l231 684h60l231 -684h-51zM415 234l-134 411l-136 -411h270zM383 836l-192 -77l-13 29l183 92z" />
    <glyph glyph-name="Abreve" unicode="&#x102;" horiz-adv-x="562" 
d="M429 192h-298l-63 -192h-48l231 684h60l231 -684h-51zM415 234l-134 411l-136 -411h270zM199 793.5q-34 26.5 -41 65.5l32 8q10 -28 33.5 -44.5t57.5 -16.5t57.5 16.5t33.5 44.5l32 -8q-7 -39 -41 -65.5t-82 -26.5t-82 26.5z" />
    <glyph glyph-name="uni1EAE" unicode="&#x1eae;" horiz-adv-x="562" 
d="M281 856l-22 20l105 128l32 -30zM199 764.5q-34 26.5 -41 65.5l32 8q10 -28 33.5 -44.5t57.5 -16.5t57.5 16.5t33.5 44.5l32 -8q-7 -39 -41 -65.5t-82 -26.5t-82 26.5zM429 192h-298l-63 -192h-48l231 684h60l231 -684h-51zM415 234l-134 411l-136 -411h270z" />
    <glyph glyph-name="uni1EB6" unicode="&#x1eb6;" horiz-adv-x="562" 
d="M429 192h-298l-63 -192h-48l231 684h60l231 -684h-51zM415 234l-134 411l-136 -411h270zM199 793.5q-34 26.5 -41 65.5l32 8q10 -28 33.5 -44.5t57.5 -16.5t57.5 16.5t33.5 44.5l32 -8q-7 -39 -41 -65.5t-82 -26.5t-82 26.5zM254.5 -150q-9.5 10 -9.5 25t9.5 25t26.5 10
q16 0 26 -10t10 -25t-10 -25t-26 -10q-17 0 -26.5 10z" />
    <glyph glyph-name="uni1EB0" unicode="&#x1eb0;" horiz-adv-x="562" 
d="M291 856l-114 118l32 30l104 -128zM199 764.5q-34 26.5 -41 65.5l32 8q10 -28 33.5 -44.5t57.5 -16.5t57.5 16.5t33.5 44.5l32 -8q-7 -39 -41 -65.5t-82 -26.5t-82 26.5zM429 192h-298l-63 -192h-48l231 684h60l231 -684h-51zM415 234l-134 411l-136 -411h270z" />
    <glyph glyph-name="uni1EB2" unicode="&#x1eb2;" horiz-adv-x="562" 
d="M223 978l-14 30q37 20 77 20t63.5 -20.5t23.5 -54.5q0 -33 -18.5 -51.5t-54.5 -22.5v-46h-40v69q33 2 51 12.5t18 35.5q0 20 -12.5 31t-35.5 11q-30 0 -58 -14zM199 764.5q-34 26.5 -41 65.5l32 8q10 -28 33.5 -44.5t57.5 -16.5t57.5 16.5t33.5 44.5l32 -8
q-7 -39 -41 -65.5t-82 -26.5t-82 26.5zM429 192h-298l-63 -192h-48l231 684h60l231 -684h-51zM415 234l-134 411l-136 -411h270z" />
    <glyph glyph-name="uni1EB4" unicode="&#x1eb4;" horiz-adv-x="562" 
d="M195.5 921.5q-12.5 -8.5 -27.5 -28.5l-29 15q37 60 86 60q15 0 28 -5.5t33 -17.5q18 -10 30.5 -15.5t25.5 -5.5q16 0 28.5 9.5t28.5 33.5l29 -15q-32 -66 -86 -66q-18 0 -34 6.5t-36 18.5q-30 19 -47 19t-29.5 -8.5zM338.5 793.5q23.5 16.5 33.5 44.5l32 -8
q-7 -39 -41 -65.5t-82 -26.5t-82 26.5t-41 65.5l32 8q10 -28 33.5 -44.5t57.5 -16.5t57.5 16.5zM429 192h-298l-63 -192h-48l231 684h60l231 -684h-51zM415 234l-134 411l-136 -411h270z" />
    <glyph glyph-name="uni01CD" unicode="&#x1cd;" horiz-adv-x="562" 
d="M429 192h-298l-63 -192h-48l231 684h60l231 -684h-51zM415 234l-134 411l-136 -411h270zM422 855l-127 -98h-27l-128 98l21 25l121 -79l119 79z" />
    <glyph glyph-name="Acircumflex" unicode="&#xc2;" horiz-adv-x="562" 
d="M429 192h-298l-63 -192h-48l231 684h60l231 -684h-51zM415 234l-134 411l-136 -411h270zM281 843l-121 -80l-21 25l128 99h27l127 -99l-21 -25z" />
    <glyph glyph-name="uni1EA4" unicode="&#x1ea4;" horiz-adv-x="562" 
d="M390 831l-22 20l105 128l32 -30zM160 731l-21 25l128 99h27l127 -99l-21 -25l-119 80zM429 192h-298l-63 -192h-48l231 684h60l231 -684h-51zM415 234l-134 411l-136 -411h270z" />
    <glyph glyph-name="uni1EAC" unicode="&#x1eac;" horiz-adv-x="562" 
d="M429 192h-298l-63 -192h-48l231 684h60l231 -684h-51zM415 234l-134 411l-136 -411h270zM281 843l-121 -80l-21 25l128 99h27l127 -99l-21 -25zM254.5 -150q-9.5 10 -9.5 25t9.5 25t26.5 10q16 0 26 -10t10 -25t-10 -25t-26 -10q-17 0 -26.5 10z" />
    <glyph glyph-name="uni1EA6" unicode="&#x1ea6;" horiz-adv-x="562" 
d="M176 831l-114 118l32 30l104 -128zM139 756l128 99h27l127 -99l-21 -25l-119 80l-121 -80zM429 192h-298l-63 -192h-48l231 684h60l231 -684h-51zM415 234l-134 411l-136 -411h270z" />
    <glyph glyph-name="uni1EA8" unicode="&#x1ea8;" horiz-adv-x="562" 
d="M343 956l-14 30q37 20 77 20t63.5 -20.5t23.5 -54.5q0 -33 -18.5 -51.5t-54.5 -22.5v-46h-40v69q33 2 51 12.5t18 35.5q0 20 -12.5 31t-35.5 11q-30 0 -58 -14zM160 731l-21 25l128 99h27l127 -99l-21 -25l-119 80zM429 192h-298l-63 -192h-48l231 684h60l231 -684h-51z
M415 234l-134 411l-136 -411h270z" />
    <glyph glyph-name="uni1EAA" unicode="&#x1eaa;" horiz-adv-x="562" 
d="M192.5 930.5q-12.5 -8.5 -27.5 -28.5l-29 15q37 60 86 60q15 0 28 -5.5t33 -17.5q18 -10 30.5 -15.5t25.5 -5.5q16 0 28.5 9.5t28.5 33.5l29 -15q-32 -66 -86 -66q-18 0 -34 6.5t-36 18.5q-30 19 -47 19t-29.5 -8.5zM294 855l127 -99l-21 -25l-119 80l-121 -80l-21 25
l128 99h27zM429 192h-298l-63 -192h-48l231 684h60l231 -684h-51zM415 234l-134 411l-136 -411h270z" />
    <glyph glyph-name="uni0200" unicode="&#x200;" horiz-adv-x="562" 
d="M429 192h-298l-63 -192h-48l231 684h60l231 -684h-51zM415 234l-134 411l-136 -411h270zM251 822l-31 -15l-88 136l43 23zM365 826l-31 -15l-80 132l43 22z" />
    <glyph glyph-name="Adieresis" unicode="&#xc4;" horiz-adv-x="562" 
d="M429 192h-298l-63 -192h-48l231 684h60l231 -684h-51zM415 234l-134 411l-136 -411h270zM214.5 848.5q9.5 -9.5 9.5 -23.5t-9.5 -23.5t-24.5 -9.5t-24.5 9.5t-9.5 23.5t9.5 23.5t24.5 9.5t24.5 -9.5zM395.5 848.5q9.5 -9.5 9.5 -23.5t-9.5 -23.5t-23.5 -9.5
q-15 0 -24.5 9.5t-9.5 23.5t9.5 23.5t24.5 9.5q14 0 23.5 -9.5z" />
    <glyph glyph-name="uni01DE" unicode="&#x1de;" horiz-adv-x="562" 
d="M397 869h-229v39h229v-39zM165.5 752.5q-9.5 9.5 -9.5 23.5t9.5 23.5t24.5 9.5t24.5 -9.5t9.5 -23.5t-9.5 -23.5t-24.5 -9.5t-24.5 9.5zM395.5 799.5q9.5 -9.5 9.5 -23.5t-9.5 -23.5t-23.5 -9.5q-15 0 -24.5 9.5t-9.5 23.5t9.5 23.5t24.5 9.5q14 0 23.5 -9.5zM429 192
h-298l-63 -192h-48l231 684h60l231 -684h-51zM415 234l-134 411l-136 -411h270z" />
    <glyph glyph-name="uni0226" unicode="&#x226;" horiz-adv-x="562" 
d="M429 192h-298l-63 -192h-48l231 684h60l231 -684h-51zM415 234l-134 411l-136 -411h270zM307 860q10 -10 10 -25t-10 -25t-26 -10t-26 10t-10 25t10 25t26 10t26 -10z" />
    <glyph glyph-name="uni1EA0" unicode="&#x1ea0;" horiz-adv-x="562" 
d="M429 192h-298l-63 -192h-48l231 684h60l231 -684h-51zM415 234l-134 411l-136 -411h270zM254.5 -150q-9.5 10 -9.5 25t9.5 25t26.5 10q16 0 26 -10t10 -25t-10 -25t-26 -10q-17 0 -26.5 10z" />
    <glyph glyph-name="uni01E0" unicode="&#x1e0;" horiz-adv-x="562" 
d="M397 869h-229v39h229v-39zM256 803q10 10 26 10t26 -10t10 -25t-10 -25t-26 -10t-26 10t-10 25t10 25zM429 192h-298l-63 -192h-48l231 684h60l231 -684h-51zM415 234l-134 411l-136 -411h270z" />
    <glyph glyph-name="Agrave" unicode="&#xc0;" horiz-adv-x="562" 
d="M429 192h-298l-63 -192h-48l231 684h60l231 -684h-51zM415 234l-134 411l-136 -411h270zM381 788l-13 -29l-192 77l22 44z" />
    <glyph glyph-name="uni1EA2" unicode="&#x1ea2;" horiz-adv-x="562" 
d="M429 192h-298l-63 -192h-48l231 684h60l231 -684h-51zM415 234l-134 411l-136 -411h270zM258 847q33 2 51 12.5t18 35.5q0 20 -12.5 31t-35.5 11q-30 0 -58 -14l-14 30q37 20 77 20t63.5 -20.5t23.5 -54.5q0 -33 -18.5 -51.5t-54.5 -22.5v-46h-40v69z" />
    <glyph glyph-name="uni0202" unicode="&#x202;" horiz-adv-x="562" 
d="M429 192h-298l-63 -192h-48l231 684h60l231 -684h-51zM415 234l-134 411l-136 -411h270zM363.5 870q33.5 -28 40.5 -74l-32 -7q-10 34 -33 52t-58 18t-58 -18t-33 -52l-32 7q7 46 40.5 74t82.5 28t82.5 -28z" />
    <glyph glyph-name="uni2C6D" unicode="&#x2c6d;" horiz-adv-x="671" 
d="M563.5 59q10.5 -17 36.5 -28l-15 -38q-37 11 -55 30t-22 54q-68 -88 -177 -88q-74 0 -133.5 39t-93.5 115t-34 184q0 116 34.5 199t95.5 125.5t138 42.5q50 0 93.5 -19.5t75.5 -56.5l4 66h42v-569q0 -39 10.5 -56zM505 123v449q-30 39 -72 60t-92 21q-100 0 -160.5 -82.5
t-60.5 -243.5q0 -98 28 -164.5t76 -99t109 -32.5q105 0 172 92z" />
    <glyph glyph-name="Amacron" unicode="&#x100;" horiz-adv-x="562" 
d="M429 192h-298l-63 -192h-48l231 684h60l231 -684h-51zM415 234l-134 411l-136 -411h270zM166 805v39h229v-39h-229z" />
    <glyph glyph-name="Aogonek" unicode="&#x104;" horiz-adv-x="562" 
d="M426 -158q16 -14 49 -14q25 0 58 6l-5 -40q-35 -7 -56 -7q-52 0 -79.5 25t-27.5 64q0 42 30.5 73.5t92.5 59.5l-59 183h-298l-63 -192h-48l231 684h60l231 -684h-10q-66 -30 -94 -56t-28 -63q0 -25 16 -39zM415 234l-134 411l-136 -411h270z" />
    <glyph glyph-name="Aring" unicode="&#xc5;" horiz-adv-x="562" 
d="M429 192h-298l-63 -192h-48l231 684h60l231 -684h-51zM415 234l-134 411l-136 -411h270zM348 916.5q26 -24.5 26 -64.5t-26 -65t-67 -25t-67 25t-26 65t26 64.5t67 24.5t67 -24.5zM239.5 895.5q-14.5 -15.5 -14.5 -43.5t14.5 -43.5t41.5 -15.5t41.5 15.5t14.5 43.5
t-14.5 43.5t-41.5 15.5t-41.5 -15.5z" />
    <glyph glyph-name="Aringacute" unicode="&#x1fa;" horiz-adv-x="562" 
d="M193 919l-13 29l183 92l22 -44zM214 881.5q26 24.5 67 24.5t67 -24.5t26 -64.5t-26 -65t-67 -25t-67 25t-26 65t26 64.5zM322.5 860.5q-14.5 15.5 -41.5 15.5t-41.5 -15.5t-14.5 -43.5t14.5 -43.5t41.5 -15.5t41.5 15.5t14.5 43.5t-14.5 43.5zM429 192h-298l-63 -192h-48
l231 684h60l231 -684h-51zM415 234l-134 411l-136 -411h270z" />
    <glyph glyph-name="uni023A" unicode="&#x23a;" horiz-adv-x="562" 
d="M429 192h-160l-69 -262l-29 7l67 255h-108l-63 -192h-47l231 684h60l32 -95l40 154l28 -8l-51 -196l182 -539h-50zM249 233l75 283l-43 131l-137 -414h105zM416 233l-76 232l-61 -232h137z" />
    <glyph glyph-name="Atilde" unicode="&#xc3;" horiz-adv-x="562" 
d="M429 192h-298l-63 -192h-48l231 684h60l231 -684h-51zM415 234l-134 411l-136 -411h270zM305 802.5q-16 6.5 -36 18.5q-30 19 -47 19t-29.5 -8.5t-27.5 -28.5l-29 15q37 60 86 60q15 0 28 -5.5t33 -17.5q18 -10 30.5 -15.5t25.5 -5.5q16 0 28.5 9.5t28.5 33.5l29 -15
q-32 -66 -86 -66q-18 0 -34 6.5z" />
    <glyph glyph-name="AE" unicode="&#xc6;" horiz-adv-x="772" 
d="M729 41v-41h-267l-48 188h-291l-71 -188h-48l265 684h410l-6 -41h-330l69 -266h259v-41h-248l76 -295h230zM404 229l-107 417l-158 -417h265z" />
    <glyph glyph-name="AEacute" unicode="&#x1fc;" horiz-adv-x="772" 
d="M729 41v-41h-267l-48 188h-291l-71 -188h-48l265 684h410l-6 -41h-330l69 -266h259v-41h-248l76 -295h230zM404 229l-107 417l-158 -417h265zM552 836l-192 -77l-13 29l183 92z" />
    <glyph glyph-name="uni01E2" unicode="&#x1e2;" horiz-adv-x="772" 
d="M729 41v-41h-267l-48 188h-291l-71 -188h-48l265 684h410l-6 -41h-330l69 -266h259v-41h-248l76 -295h230zM404 229l-107 417l-158 -417h265zM336 805v39h229v-39h-229z" />
    <glyph glyph-name="B" unicode="B" horiz-adv-x="594" 
d="M493.5 313.5q44.5 -42.5 44.5 -125.5q0 -92 -62.5 -140t-175.5 -48h-185v684h149q116 0 178.5 -43t62.5 -127q0 -65 -33.5 -103t-91.5 -48q69 -7 113.5 -49.5zM162 643v-263h150q65 0 104.5 35t39.5 96q0 69 -47.5 100.5t-139.5 31.5h-107zM439 77q49 36 49 111
q0 76 -46.5 114t-123.5 38h-156v-299h139q89 0 138 36z" />
    <glyph glyph-name="uni1E02" unicode="&#x1e02;" horiz-adv-x="594" 
d="M493.5 313.5q44.5 -42.5 44.5 -125.5q0 -92 -62.5 -140t-175.5 -48h-185v684h149q116 0 178.5 -43t62.5 -127q0 -65 -33.5 -103t-91.5 -48q69 -7 113.5 -49.5zM162 643v-263h150q65 0 104.5 35t39.5 96q0 69 -47.5 100.5t-139.5 31.5h-107zM439 77q49 36 49 111
q0 76 -46.5 114t-123.5 38h-156v-299h139q89 0 138 36zM320 860q10 -10 10 -25t-10 -25t-26 -10t-26 10t-10 25t10 25t26 10t26 -10z" />
    <glyph glyph-name="uni1E04" unicode="&#x1e04;" horiz-adv-x="594" 
d="M493.5 313.5q44.5 -42.5 44.5 -125.5q0 -92 -62.5 -140t-175.5 -48h-185v684h149q116 0 178.5 -43t62.5 -127q0 -65 -33.5 -103t-91.5 -48q69 -7 113.5 -49.5zM162 643v-263h150q65 0 104.5 35t39.5 96q0 69 -47.5 100.5t-139.5 31.5h-107zM439 77q49 36 49 111
q0 76 -46.5 114t-123.5 38h-156v-299h139q89 0 138 36zM283.5 -150q-9.5 10 -9.5 25t9.5 25t26.5 10q16 0 26 -10t10 -25t-10 -25t-26 -10q-17 0 -26.5 10z" />
    <glyph glyph-name="uni0181" unicode="&#x181;" horiz-adv-x="646" 
d="M545.5 313.5q44.5 -42.5 44.5 -125.5q0 -92 -62.5 -140t-175.5 -48h-185v644h-29q-39 0 -57.5 -18.5t-18.5 -49.5q0 -21 6 -37.5t17 -37.5l-34 -19q-17 26 -25.5 46.5t-8.5 48.5q0 48 33 77.5t93 29.5h24h149q116 0 178.5 -43t62.5 -127q0 -65 -33.5 -103t-91.5 -48
q69 -7 113.5 -49.5zM214 643v-263h150q65 0 104.5 35t39.5 96q0 69 -47.5 100.5t-139.5 31.5h-107zM491 77q49 36 49 111q0 76 -46.5 114t-123.5 38h-156v-299h139q89 0 138 36z" />
    <glyph glyph-name="uni0181.ss02" horiz-adv-x="566" 
d="M454.5 363q62.5 -51 62.5 -150q0 -108 -64.5 -160.5t-174.5 -52.5h-163v684h336l-7 -42h-282v-228h117q113 0 175.5 -51zM467 214q0 159 -186 159h-119v-332h124q181 0 181 173z" />
    <glyph glyph-name="uni0243" unicode="&#x243;" horiz-adv-x="594" 
d="M493.5 313.5q44.5 -42.5 44.5 -125.5q0 -92 -62.5 -140t-174.5 -48h-186v177h-91v39h91v468h149q116 0 178.5 -43t62.5 -127q0 -65 -33.5 -103t-91.5 -48q69 -7 113.5 -49.5zM162 643v-263h150q65 0 104.5 35t39.5 96q0 69 -47.5 100.5t-139.5 31.5h-107zM439 77
q49 36 49 111q0 76 -46 114t-123 38h-157v-124h182v-39h-182v-136h139q89 0 138 36z" />
    <glyph glyph-name="uni0182" unicode="&#x182;" horiz-adv-x="566" 
d="M454.5 363q62.5 -51 62.5 -150q0 -108 -64.5 -160.5t-174.5 -52.5h-163v684h336l-7 -42h-282v-228h117q113 0 175.5 -51zM467 214q0 159 -186 159h-119v-332h124q181 0 181 173z" />
    <glyph glyph-name="C" unicode="C" horiz-adv-x="547" 
d="M438 679q39 -15 77 -46l-26 -32q-36 28 -68 40t-74 12q-101 0 -164 -76.5t-63 -234.5q0 -102 29.5 -171.5t80 -104t114.5 -34.5q49 0 82.5 14.5t69.5 43.5l27 -32q-74 -69 -181 -69q-79 0 -140.5 41t-96.5 120.5t-35 191.5q0 114 36 193t98.5 119t139.5 40q55 0 94 -15z
" />
    <glyph glyph-name="Cacute" unicode="&#x106;" horiz-adv-x="547" 
d="M438 679q39 -15 77 -46l-26 -32q-36 28 -68 40t-74 12q-101 0 -164 -76.5t-63 -234.5q0 -102 29.5 -171.5t80 -104t114.5 -34.5q49 0 82.5 14.5t69.5 43.5l27 -32q-74 -69 -181 -69q-79 0 -140.5 41t-96.5 120.5t-35 191.5q0 114 36 193t98.5 119t139.5 40q55 0 94 -15z
M445 836l-192 -77l-13 29l183 92z" />
    <glyph glyph-name="Cacute.loclPLK" horiz-adv-x="547" 
d="M438 679q39 -15 77 -46l-26 -32q-36 28 -68 40t-74 12q-101 0 -164 -76.5t-63 -234.5q0 -102 29.5 -171.5t80 -104t114.5 -34.5q49 0 82.5 14.5t69.5 43.5l27 -32q-74 -69 -181 -69q-79 0 -140.5 41t-96.5 120.5t-35 191.5q0 114 36 193t98.5 119t139.5 40q55 0 94 -15z
M448 876l-116 -145l-25 16l101 155z" />
    <glyph glyph-name="Ccaron" unicode="&#x10c;" horiz-adv-x="547" 
d="M438 679q39 -15 77 -46l-26 -32q-36 28 -68 40t-74 12q-101 0 -164 -76.5t-63 -234.5q0 -102 29.5 -171.5t80 -104t114.5 -34.5q49 0 82.5 14.5t69.5 43.5l27 -32q-74 -69 -181 -69q-79 0 -140.5 41t-96.5 120.5t-35 191.5q0 114 36 193t98.5 119t139.5 40q55 0 94 -15z
M484 855l-127 -98h-27l-128 98l21 25l121 -79l119 79z" />
    <glyph glyph-name="Ccedilla" unicode="&#xc7;" horiz-adv-x="547" 
d="M445 -140q0 -38 -28.5 -60t-70.5 -22q-43 0 -76 20l16 30q28 -15 59 -15q25 0 41 12t16 35t-21 34t-68 11l7 85q-74 6 -130 48.5t-88 119.5t-32 184q0 114 36 193t98.5 119t139.5 40q55 0 94 -15t77 -46l-26 -32q-36 28 -68 40t-74 12q-101 0 -164 -76.5t-63 -234.5
q0 -102 29.5 -171.5t80 -104t114.5 -34.5q49 0 82.5 14.5t69.5 43.5l27 -32q-71 -65 -170 -68v-57q92 -7 92 -73z" />
    <glyph glyph-name="Ccircumflex" unicode="&#x108;" horiz-adv-x="547" 
d="M438 679q39 -15 77 -46l-26 -32q-36 28 -68 40t-74 12q-101 0 -164 -76.5t-63 -234.5q0 -102 29.5 -171.5t80 -104t114.5 -34.5q49 0 82.5 14.5t69.5 43.5l27 -32q-74 -69 -181 -69q-79 0 -140.5 41t-96.5 120.5t-35 191.5q0 114 36 193t98.5 119t139.5 40q55 0 94 -15z
M344 843l-121 -80l-21 25l128 99h27l127 -99l-21 -25z" />
    <glyph glyph-name="Cdotaccent" unicode="&#x10a;" horiz-adv-x="547" 
d="M438 679q39 -15 77 -46l-26 -32q-36 28 -68 40t-74 12q-101 0 -164 -76.5t-63 -234.5q0 -102 29.5 -171.5t80 -104t114.5 -34.5q49 0 82.5 14.5t69.5 43.5l27 -32q-74 -69 -181 -69q-79 0 -140.5 41t-96.5 120.5t-35 191.5q0 114 36 193t98.5 119t139.5 40q55 0 94 -15z
M369 860q10 -10 10 -25t-10 -25t-26 -10t-26 10t-10 25t10 25t26 10t26 -10z" />
    <glyph glyph-name="uni0187" unicode="&#x187;" horiz-adv-x="547" 
d="M682 789l-20 -30q-18 11 -35.5 17t-40.5 6q-71 0 -71 -86v-63l-23 -28q-38 25 -70.5 36.5t-74.5 11.5q-101 0 -164 -76.5t-63 -234.5q0 -102 29.5 -171.5t80 -104t114.5 -34.5q49 0 82.5 14.5t69.5 43.5l27 -32q-74 -69 -181 -69q-79 0 -140.5 41t-96.5 120.5t-35 191.5
q0 114 36 193t98.5 119t139.5 40q72 0 125 -33v34q0 62 30.5 94.5t84.5 32.5q55 0 98 -33z" />
    <glyph glyph-name="uni023B" unicode="&#x23b;" horiz-adv-x="547" 
d="M342 -11q-46 0 -91 16l-20 -75l-28 7l21 80q-72 38 -113 121t-41 204q0 114 36 193t98.5 119t139.5 40q36 0 57 -5l14 54l27 -8l-13 -53q42 -13 86 -49l-26 -32q-37 28 -71 41l-156 -594q40 -16 82 -16q49 0 82.5 14.5t69.5 43.5l27 -32q-74 -69 -181 -69zM150.5 167
q30.5 -71 84.5 -105l155 587q-17 4 -43 4q-101 0 -164 -76.5t-63 -234.5q0 -104 30.5 -175z" />
    <glyph glyph-name="D" unicode="D" horiz-adv-x="628" 
d="M472 612q86 -72 86 -264q0 -193 -88 -270.5t-215 -77.5h-140v684h133q138 0 224 -72zM162 643v-602h96q250 0 250 307q0 120 -36 185.5t-92 87.5t-129 22h-89z" />
    <glyph glyph-name="uni01F1" unicode="&#x1f1;" horiz-adv-x="1132" 
d="M472 612q86 -72 86 -264q0 -193 -88 -270.5t-215 -77.5h-140v684h133q138 0 224 -72zM162 643v-602h96q250 0 250 307q0 120 -36 185.5t-92 87.5t-129 22h-89zM1083 644l-373 -601h364l-6 -43h-413v40l375 602h-337v42h390v-40z" />
    <glyph glyph-name="uni01C4" unicode="&#x1c4;" horiz-adv-x="1132" 
d="M472 612q86 -72 86 -264q0 -193 -88 -270.5t-215 -77.5h-140v684h133q138 0 224 -72zM162 643v-602h96q250 0 250 307q0 120 -36 185.5t-92 87.5t-129 22h-89zM1083 644l-373 -601h364l-6 -43h-413v40l375 602h-337v42h390v-40zM1019 855l-127 -98h-27l-128 98l21 25
l121 -79l119 79z" />
    <glyph glyph-name="uni0189" unicode="&#x189;" horiz-adv-x="630" 
d="M474 612q86 -72 86 -264q0 -193 -87.5 -270.5t-214.5 -77.5h-141v332h-93v40h93v312h133q138 0 224 -72zM510 348q0 120 -36 185.5t-92 87.5t-129 22h-88v-271h181v-40h-181v-291h95q250 0 250 307z" />
    <glyph glyph-name="Eth" unicode="&#xd0;" horiz-adv-x="630" 
d="M474 612q86 -72 86 -264q0 -193 -87.5 -270.5t-214.5 -77.5h-141v332h-93v40h93v312h133q138 0 224 -72zM510 348q0 120 -36 185.5t-92 87.5t-129 22h-88v-271h181v-40h-181v-291h95q250 0 250 307z" />
    <glyph glyph-name="Dcaron" unicode="&#x10e;" horiz-adv-x="628" 
d="M472 612q86 -72 86 -264q0 -193 -88 -270.5t-215 -77.5h-140v684h133q138 0 224 -72zM162 643v-602h96q250 0 250 307q0 120 -36 185.5t-92 87.5t-129 22h-89zM439 855l-127 -98h-27l-128 98l21 25l121 -79l119 79z" />
    <glyph glyph-name="uni1E12" unicode="&#x1e12;" horiz-adv-x="628" 
d="M472 612q86 -72 86 -264q0 -193 -88 -270.5t-215 -77.5h-140v684h133q138 0 224 -72zM162 643v-602h96q250 0 250 307q0 120 -36 185.5t-92 87.5t-129 22h-89zM158 -174l127 104h27l128 -104l-21 -25l-120 85l-120 -85z" />
    <glyph glyph-name="Dcroat" unicode="&#x110;" horiz-adv-x="630" 
d="M474 612q86 -72 86 -264q0 -193 -87.5 -270.5t-214.5 -77.5h-141v332h-93v40h93v312h133q138 0 224 -72zM510 348q0 120 -36 185.5t-92 87.5t-129 22h-88v-271h181v-40h-181v-291h95q250 0 250 307z" />
    <glyph glyph-name="uni1E0A" unicode="&#x1e0a;" horiz-adv-x="628" 
d="M472 612q86 -72 86 -264q0 -193 -88 -270.5t-215 -77.5h-140v684h133q138 0 224 -72zM162 643v-602h96q250 0 250 307q0 120 -36 185.5t-92 87.5t-129 22h-89zM324 860q10 -10 10 -25t-10 -25t-26 -10t-26 10t-10 25t10 25t26 10t26 -10z" />
    <glyph glyph-name="uni1E0C" unicode="&#x1e0c;" horiz-adv-x="628" 
d="M472 612q86 -72 86 -264q0 -193 -88 -270.5t-215 -77.5h-140v684h133q138 0 224 -72zM162 643v-602h96q250 0 250 307q0 120 -36 185.5t-92 87.5t-129 22h-89zM273.5 -150q-9.5 10 -9.5 25t9.5 25t26.5 10q16 0 26 -10t10 -25t-10 -25t-26 -10q-17 0 -26.5 10z" />
    <glyph glyph-name="uni018A" unicode="&#x18a;" horiz-adv-x="680" 
d="M524 612q86 -72 86 -264q0 -193 -88 -270.5t-215 -77.5h-140v644h-29q-39 0 -57.5 -18.5t-18.5 -49.5q0 -21 6 -37.5t17 -37.5l-34 -19q-17 26 -25.5 46.5t-8.5 48.5q0 48 33 77.5t93 29.5h24h133q138 0 224 -72zM560 348q0 120 -36 185.5t-92 87.5t-129 22h-89v-602h96
q250 0 250 307z" />
    <glyph glyph-name="uni1E0E" unicode="&#x1e0e;" horiz-adv-x="628" 
d="M472 612q86 -72 86 -264q0 -193 -88 -270.5t-215 -77.5h-140v684h133q138 0 224 -72zM162 643v-602h96q250 0 250 307q0 120 -36 185.5t-92 87.5t-129 22h-89zM185 -154v40h229v-40h-229z" />
    <glyph glyph-name="uni018B" unicode="&#x18b;" horiz-adv-x="566" 
d="M451 0h-173q-104 0 -166.5 50.5t-62.5 153.5q0 101 63.5 155.5t176.5 54.5h114v228h-285v42h333v-684zM403 41v332h-115q-92 0 -141 -42.5t-49 -126.5q0 -163 182 -163h123z" />
    <glyph glyph-name="uni01F2" unicode="&#x1f2;" horiz-adv-x="1045" 
d="M472 612q86 -72 86 -264q0 -193 -88 -270.5t-215 -77.5h-140v684h133q138 0 224 -72zM162 643v-602h96q250 0 250 307q0 120 -36 185.5t-92 87.5t-129 22h-89zM1010 485l-298 -444h295l-5 -41h-345v36l299 445h-275v41h329v-37z" />
    <glyph glyph-name="uni01C5" unicode="&#x1c5;" horiz-adv-x="1045" 
d="M472 612q86 -72 86 -264q0 -193 -88 -270.5t-215 -77.5h-140v684h133q138 0 224 -72zM162 643v-602h96q250 0 250 307q0 120 -36 185.5t-92 87.5t-129 22h-89zM1010 485l-298 -444h295l-5 -41h-345v36l299 445h-275v41h329v-37zM984 739l-127 -104h-27l-128 104l21 24
l121 -84l119 84z" />
    <glyph glyph-name="E" unicode="E" horiz-adv-x="504" 
d="M448 643h-286v-266h247v-41h-247v-295h298v-41h-345v684h339z" />
    <glyph glyph-name="Eacute" unicode="&#xc9;" horiz-adv-x="504" 
d="M448 643h-286v-266h247v-41h-247v-295h298v-41h-345v684h339zM391 836l-192 -77l-13 29l183 92z" />
    <glyph glyph-name="Ebreve" unicode="&#x114;" horiz-adv-x="504" 
d="M448 643h-286v-266h247v-41h-247v-295h298v-41h-345v684h339zM206 793.5q-34 26.5 -41 65.5l32 8q10 -28 33.5 -44.5t57.5 -16.5t57.5 16.5t33.5 44.5l32 -8q-7 -39 -41 -65.5t-82 -26.5t-82 26.5z" />
    <glyph glyph-name="Ecaron" unicode="&#x11a;" horiz-adv-x="504" 
d="M448 643h-286v-266h247v-41h-247v-295h298v-41h-345v684h339zM429 855l-127 -98h-27l-128 98l21 25l121 -79l119 79z" />
    <glyph glyph-name="uni0228" unicode="&#x228;" horiz-adv-x="504" 
d="M295 0v-67q92 -7 92 -73q0 -38 -28.5 -60t-70.5 -22q-43 0 -76 20l16 30q28 -15 59 -15q25 0 41 12t16 35t-21 34t-68 11l8 95h-148v684h339l-6 -41h-286v-266h247v-41h-247v-295h298v-41h-165z" />
    <glyph glyph-name="Ecircumflex" unicode="&#xca;" horiz-adv-x="504" 
d="M448 643h-286v-266h247v-41h-247v-295h298v-41h-345v684h339zM289 843l-121 -80l-21 25l128 99h27l127 -99l-21 -25z" />
    <glyph glyph-name="uni1EBE" unicode="&#x1ebe;" horiz-adv-x="504" 
d="M512 949l-115 -118l-22 20l105 128zM288 811l-121 -80l-21 25l128 99h27l127 -99l-21 -25zM448 643h-286v-266h247v-41h-247v-295h298v-41h-345v684h339z" />
    <glyph glyph-name="uni1EC6" unicode="&#x1ec6;" horiz-adv-x="504" 
d="M448 643h-286v-266h247v-41h-247v-295h298v-41h-345v684h339zM289 843l-121 -80l-21 25l128 99h27l127 -99l-21 -25zM258.5 -150q-9.5 10 -9.5 25t9.5 25t26.5 10q16 0 26 -10t10 -25t-10 -25t-26 -10q-17 0 -26.5 10z" />
    <glyph glyph-name="uni1EC0" unicode="&#x1ec0;" horiz-adv-x="504" 
d="M206 851l-22 -20l-114 118l32 30zM289 811l-121 -80l-21 25l128 99h27l127 -99l-21 -25zM448 643h-286v-266h247v-41h-247v-295h298v-41h-345v684h339z" />
    <glyph glyph-name="uni1EC2" unicode="&#x1ec2;" horiz-adv-x="504" 
d="M387 880q33 2 51 12.5t18 35.5q0 20 -12.5 31t-35.5 11q-30 0 -58 -14l-14 30q37 20 77 20t63.5 -20.5t23.5 -54.5q0 -33 -18.5 -51.5t-54.5 -22.5v-46h-40v69zM288 811l-121 -80l-21 25l128 99h27l127 -99l-21 -25zM448 643h-286v-266h247v-41h-247v-295h298v-41h-345
v684h339z" />
    <glyph glyph-name="uni1EC4" unicode="&#x1ec4;" horiz-adv-x="504" 
d="M312 901.5q-16 6.5 -36 18.5q-30 19 -47 19t-29.5 -8.5t-27.5 -28.5l-29 15q37 60 86 60q15 0 28 -5.5t33 -17.5q18 -10 30.5 -15.5t25.5 -5.5q16 0 28.5 9.5t28.5 33.5l29 -15q-32 -66 -86 -66q-18 0 -34 6.5zM288 811l-121 -80l-21 25l128 99h27l127 -99l-21 -25z
M448 643h-286v-266h247v-41h-247v-295h298v-41h-345v684h339z" />
    <glyph glyph-name="uni0204" unicode="&#x204;" horiz-adv-x="504" 
d="M448 643h-286v-266h247v-41h-247v-295h298v-41h-345v684h339zM258 822l-31 -15l-88 136l43 23zM372 826l-31 -15l-80 132l43 22z" />
    <glyph glyph-name="Edieresis" unicode="&#xcb;" horiz-adv-x="504" 
d="M448 643h-286v-266h247v-41h-247v-295h298v-41h-345v684h339zM221.5 848.5q9.5 -9.5 9.5 -23.5t-9.5 -23.5t-24.5 -9.5t-24.5 9.5t-9.5 23.5t9.5 23.5t24.5 9.5t24.5 -9.5zM402.5 848.5q9.5 -9.5 9.5 -23.5t-9.5 -23.5t-23.5 -9.5q-15 0 -24.5 9.5t-9.5 23.5t9.5 23.5
t24.5 9.5q14 0 23.5 -9.5z" />
    <glyph glyph-name="Edotaccent" unicode="&#x116;" horiz-adv-x="504" 
d="M448 643h-286v-266h247v-41h-247v-295h298v-41h-345v684h339zM314 860q10 -10 10 -25t-10 -25t-26 -10t-26 10t-10 25t10 25t26 10t26 -10z" />
    <glyph glyph-name="uni1EB8" unicode="&#x1eb8;" horiz-adv-x="504" 
d="M448 643h-286v-266h247v-41h-247v-295h298v-41h-345v684h339zM258.5 -150q-9.5 10 -9.5 25t9.5 25t26.5 10q16 0 26 -10t10 -25t-10 -25t-26 -10q-17 0 -26.5 10z" />
    <glyph glyph-name="Egrave" unicode="&#xc8;" horiz-adv-x="504" 
d="M448 643h-286v-266h247v-41h-247v-295h298v-41h-345v684h339zM388 788l-13 -29l-192 77l22 44z" />
    <glyph glyph-name="uni1EBA" unicode="&#x1eba;" horiz-adv-x="504" 
d="M448 643h-286v-266h247v-41h-247v-295h298v-41h-345v684h339zM266 847q33 2 51 12.5t18 35.5q0 20 -12.5 31t-35.5 11q-30 0 -58 -14l-14 30q37 20 77 20t63.5 -20.5t23.5 -54.5q0 -33 -18.5 -51.5t-54.5 -22.5v-46h-40v69z" />
    <glyph glyph-name="uni0206" unicode="&#x206;" horiz-adv-x="504" 
d="M448 643h-286v-266h247v-41h-247v-295h298v-41h-345v684h339zM370.5 870q33.5 -28 40.5 -74l-32 -7q-10 34 -33 52t-58 18t-58 -18t-33 -52l-32 7q7 46 40.5 74t82.5 28t82.5 -28z" />
    <glyph glyph-name="Emacron" unicode="&#x112;" horiz-adv-x="504" 
d="M448 643h-286v-266h247v-41h-247v-295h298v-41h-345v684h339zM174 805v39h229v-39h-229z" />
    <glyph glyph-name="Eogonek" unicode="&#x118;" horiz-adv-x="504" 
d="M337 -56q-28 -26 -28 -63q0 -25 16 -39t49 -14q25 0 58 6l-5 -40q-35 -7 -56 -7q-52 0 -79.5 25t-27.5 64q0 38 25.5 68t78.5 56h-253v684h339l-6 -41h-286v-266h247v-41h-247v-295h298v-41h-29q-66 -30 -94 -56z" />
    <glyph glyph-name="uni0190" unicode="&#x190;" horiz-adv-x="520" 
d="M381 673.5q49 -20.5 94 -62.5l-28 -30q-79 72 -171 72q-70 0 -109.5 -35t-39.5 -94q0 -65 43.5 -100.5t116.5 -35.5h58l-7 -41h-55q-85 1 -131 -39t-46 -113q0 -76 49 -119.5t129 -43.5q103 0 181 78l30 -28q-90 -93 -212 -93q-65 0 -117 25t-81 72t-29 110
q0 78 43 122.5t110 51.5q-60 13 -95.5 52t-35.5 103q0 75 52.5 122t142.5 47q59 0 108 -20.5z" />
    <glyph glyph-name="uni018E" unicode="&#x18e;" horiz-adv-x="504" 
d="M389 684v-684h-345v41h297v295h-246v41h246v266h-291v41h339z" />
    <glyph glyph-name="uni01A9" unicode="&#x1a9;" horiz-adv-x="490" 
d="M443 642h-334l219 -290v-25l-219 -285h334v-42h-396v32l234 307l-234 313v32h396v-42z" />
    <glyph glyph-name="uni0246" unicode="&#x246;" horiz-adv-x="504" 
d="M460 0h-242l-18 -70l-29 7l17 63h-73v684h253l15 59l28 -8l-13 -51h56l-6 -41h-61l-70 -266h92v-41h-102l-78 -295h231v-41zM162 377h125l70 266h-195v-266zM199 41l77 295h-114v-295h37z" />
    <glyph glyph-name="uni1EBC" unicode="&#x1ebc;" horiz-adv-x="504" 
d="M448 643h-286v-266h247v-41h-247v-295h298v-41h-345v684h339zM313 802.5q-16 6.5 -36 18.5q-30 19 -47 19t-29.5 -8.5t-27.5 -28.5l-29 15q37 60 86 60q15 0 28 -5.5t33 -17.5q18 -10 30.5 -15.5t25.5 -5.5q16 0 28.5 9.5t28.5 33.5l29 -15q-32 -66 -86 -66
q-18 0 -34 6.5z" />
    <glyph glyph-name="uni01B7" unicode="&#x1b7;" horiz-adv-x="486" 
d="M380.5 331.5q56.5 -50.5 56.5 -144.5q0 -57 -26 -102t-75.5 -70.5t-116.5 -25.5q-66 0 -114.5 21t-87.5 64l29 28q36 -38 76 -54.5t95 -16.5q83 0 127 42.5t44 113.5q0 156 -177 156h-83v39l226 261h-316v41h374v-39l-232 -263h34q110 0 166.5 -50.5z" />
    <glyph glyph-name="uni01EE" unicode="&#x1ee;" horiz-adv-x="486" 
d="M380.5 331.5q56.5 -50.5 56.5 -144.5q0 -57 -26 -102t-75.5 -70.5t-116.5 -25.5q-66 0 -114.5 21t-87.5 64l29 28q36 -38 76 -54.5t95 -16.5q83 0 127 42.5t44 113.5q0 156 -177 156h-83v39l226 261h-316v41h374v-39l-232 -263h34q110 0 166.5 -50.5zM366 855l-127 -98
h-27l-128 98l21 25l121 -79l119 79z" />
    <glyph glyph-name="uni01B8" unicode="&#x1b8;" horiz-adv-x="486" 
d="M468 74q-41 -43 -90 -64t-120 -21q-95 0 -152 52.5t-57 139.5q0 94 57.5 147.5t164.5 53.5h34l-232 263v39h375v-41h-315l225 -261v-39h-83q-86 0 -132 -40t-46 -122q0 -70 42.5 -110t119.5 -40q60 0 101 16.5t79 54.5z" />
    <glyph glyph-name="F" unicode="F" horiz-adv-x="477" 
d="M442 643h-280v-279h242v-40h-242v-324h-47v684h333z" />
    <glyph glyph-name="uni1E1E" unicode="&#x1e1e;" horiz-adv-x="477" 
d="M442 643h-280v-279h242v-40h-242v-324h-47v684h333zM317 860q10 -10 10 -25t-10 -25t-26 -10t-26 10t-10 25t10 25t26 10t26 -10z" />
    <glyph glyph-name="uni0191" unicode="&#x191;" horiz-adv-x="477" 
d="M162 643v-279h242v-40h-242v-400q0 -62 -31.5 -94.5t-84.5 -32.5q-54 0 -97 33l20 32q17 -12 34.5 -18t41.5 -6q69 0 69 86v77h1v683h333l-6 -41h-280z" />
    <glyph glyph-name="G" unicode="G" horiz-adv-x="614" 
d="M448 678.5q42 -15.5 85 -49.5l-29 -30q-37 28 -72.5 41t-81.5 13q-59 0 -111.5 -32t-85.5 -101.5t-33 -174.5q0 -156 61.5 -235t169.5 -79q44 0 79 9t69 28v256h-138l-6 41h191v-321q-93 -55 -197 -55q-84 0 -147 40t-97.5 120t-34.5 196q0 113 39.5 191.5t103.5 118
t136 39.5q57 0 99 -15.5z" />
    <glyph glyph-name="uni01F4" unicode="&#x1f4;" horiz-adv-x="614" 
d="M448 678.5q42 -15.5 85 -49.5l-29 -30q-37 28 -72.5 41t-81.5 13q-59 0 -111.5 -32t-85.5 -101.5t-33 -174.5q0 -156 61.5 -235t169.5 -79q44 0 79 9t69 28v256h-138l-6 41h191v-321q-93 -55 -197 -55q-84 0 -147 40t-97.5 120t-34.5 196q0 113 39.5 191.5t103.5 118
t136 39.5q57 0 99 -15.5zM453 836l-192 -77l-13 29l183 92z" />
    <glyph glyph-name="uni0194" unicode="&#x194;" horiz-adv-x="542" 
d="M300 56q33 -70 45.5 -105t12.5 -69q0 -38 -23 -61.5t-64 -23.5q-40 0 -63 23t-23 61q0 32 12.5 68t45.5 107l-223 628h51l201 -593l201 593h49zM303 -60q-9 29 -32 83q-24 -59 -32.5 -85.5t-8.5 -53.5q0 -23 10.5 -35t30.5 -12t30.5 12t10.5 35q0 27 -9 56z" />
    <glyph glyph-name="Gbreve" unicode="&#x11e;" horiz-adv-x="614" 
d="M448 678.5q42 -15.5 85 -49.5l-29 -30q-37 28 -72.5 41t-81.5 13q-59 0 -111.5 -32t-85.5 -101.5t-33 -174.5q0 -156 61.5 -235t169.5 -79q44 0 79 9t69 28v256h-138l-6 41h191v-321q-93 -55 -197 -55q-84 0 -147 40t-97.5 120t-34.5 196q0 113 39.5 191.5t103.5 118
t136 39.5q57 0 99 -15.5zM268 793.5q-34 26.5 -41 65.5l32 8q10 -28 33.5 -44.5t57.5 -16.5t57.5 16.5t33.5 44.5l32 -8q-7 -39 -41 -65.5t-82 -26.5t-82 26.5z" />
    <glyph glyph-name="Gcaron" unicode="&#x1e6;" horiz-adv-x="614" 
d="M448 678.5q42 -15.5 85 -49.5l-29 -30q-37 28 -72.5 41t-81.5 13q-59 0 -111.5 -32t-85.5 -101.5t-33 -174.5q0 -156 61.5 -235t169.5 -79q44 0 79 9t69 28v256h-138l-6 41h191v-321q-93 -55 -197 -55q-84 0 -147 40t-97.5 120t-34.5 196q0 113 39.5 191.5t103.5 118
t136 39.5q57 0 99 -15.5zM491 855l-127 -98h-27l-128 98l21 25l121 -79l119 79z" />
    <glyph glyph-name="Gcircumflex" unicode="&#x11c;" horiz-adv-x="614" 
d="M448 678.5q42 -15.5 85 -49.5l-29 -30q-37 28 -72.5 41t-81.5 13q-59 0 -111.5 -32t-85.5 -101.5t-33 -174.5q0 -156 61.5 -235t169.5 -79q44 0 79 9t69 28v256h-138l-6 41h191v-321q-93 -55 -197 -55q-84 0 -147 40t-97.5 120t-34.5 196q0 113 39.5 191.5t103.5 118
t136 39.5q57 0 99 -15.5zM351 843l-121 -80l-21 25l128 99h27l127 -99l-21 -25z" />
    <glyph glyph-name="Gcommaaccent" unicode="&#x122;" horiz-adv-x="614" 
d="M448 678.5q42 -15.5 85 -49.5l-29 -30q-37 28 -72.5 41t-81.5 13q-59 0 -111.5 -32t-85.5 -101.5t-33 -174.5q0 -156 61.5 -235t169.5 -79q44 0 79 9t69 28v256h-138l-6 41h191v-321q-93 -55 -197 -55q-84 0 -147 40t-97.5 120t-34.5 196q0 113 39.5 191.5t103.5 118
t136 39.5q57 0 99 -15.5zM365.5 -98q10.5 -11 10.5 -27q0 -11 -4 -22.5t-16 -39.5l-40 -86h-29l33 114q-22 11 -22 34q0 16 11.5 27t27.5 11q18 0 28.5 -11z" />
    <glyph glyph-name="Gdotaccent" unicode="&#x120;" horiz-adv-x="614" 
d="M448 678.5q42 -15.5 85 -49.5l-29 -30q-37 28 -72.5 41t-81.5 13q-59 0 -111.5 -32t-85.5 -101.5t-33 -174.5q0 -156 61.5 -235t169.5 -79q44 0 79 9t69 28v256h-138l-6 41h191v-321q-93 -55 -197 -55q-84 0 -147 40t-97.5 120t-34.5 196q0 113 39.5 191.5t103.5 118
t136 39.5q57 0 99 -15.5zM376 860q10 -10 10 -25t-10 -25t-26 -10t-26 10t-10 25t10 25t26 10t26 -10z" />
    <glyph glyph-name="uni0193" unicode="&#x193;" horiz-adv-x="565" 
d="M700 789l-20 -30q-18 11 -35.5 17t-41.5 6q-70 0 -70 -86v-67l-25 -26q-38 26 -75 38t-83 12q-59 0 -111.5 -32t-85.5 -101.5t-33 -174.5q0 -156 61.5 -235t169.5 -79q44 0 79 9t69 28v256h-138l-6 41h191v-321q-93 -55 -197 -55q-84 0 -147 40t-97.5 120t-34.5 196
q0 112 39.5 191t102.5 118.5t134 39.5q44 0 77 -8.5t64 -27.5v37q0 62 30.5 94.5t84.5 32.5q55 0 98 -33z" />
    <glyph glyph-name="uni0241" unicode="&#x241;" horiz-adv-x="459" 
d="M160 300l72 18q71 18 107 56.5t36 116.5q0 73 -41.5 117.5t-115.5 44.5q-49 0 -90.5 -18.5t-81.5 -53.5l-29 30q47 42 95.5 62.5t107.5 20.5q62 0 108.5 -26t71 -71.5t24.5 -104.5q0 -97 -47.5 -143.5t-130.5 -67.5l-39 -9v-272h-47v300z" />
    <glyph glyph-name="uni01E4" unicode="&#x1e4;" horiz-adv-x="628" 
d="M619 199h-73v-155q-93 -55 -197 -55q-84 0 -147 40t-97.5 120t-34.5 196q0 113 39.5 191.5t103.5 118t136 39.5q57 0 99 -15.5t85 -49.5l-29 -30q-37 28 -72.5 41t-81.5 13q-59 0 -111.5 -32t-85.5 -101.5t-33 -174.5q0 -156 61.5 -235t169.5 -79q44 0 79 9t69 28v131
h-138v41h138v84h-138l-6 41h191v-125h73v-41z" />
    <glyph glyph-name="H" unicode="H" horiz-adv-x="667" 
d="M504 339h-342v-339h-47v684h47v-303h342v303h48v-684h-48v339z" />
    <glyph glyph-name="Hbar" unicode="&#x126;" horiz-adv-x="669" 
d="M617 515h-64v-515h-48v339h-342v-339h-47v515h-65v36h65v133h47v-133h342v133h48v-133h64v-36zM505 515h-342v-134h342v134z" />
    <glyph glyph-name="uni021E" unicode="&#x21e;" horiz-adv-x="667" 
d="M504 339h-342v-339h-47v684h47v-303h342v303h48v-684h-48v339zM472 855l-127 -98h-27l-128 98l21 25l121 -79l119 79z" />
    <glyph glyph-name="Hcircumflex" unicode="&#x124;" horiz-adv-x="667" 
d="M504 339h-342v-339h-47v684h47v-303h342v303h48v-684h-48v339zM332 843l-121 -80l-21 25l128 99h27l127 -99l-21 -25z" />
    <glyph glyph-name="uni1E24" unicode="&#x1e24;" horiz-adv-x="667" 
d="M504 339h-342v-339h-47v684h47v-303h342v303h48v-684h-48v339zM306.5 -150q-9.5 10 -9.5 25t9.5 25t26.5 10q16 0 26 -10t10 -25t-10 -25t-26 -10q-17 0 -26.5 10z" />
    <glyph glyph-name="uniA7AA" unicode="&#xa7aa;" horiz-adv-x="719" 
d="M604 684v-684h-47v339h-342v-339h-48v644h-29q-39 0 -57.5 -18.5t-18.5 -49.5q0 -21 6 -37.5t17 -37.5l-34 -19q-17 26 -25.5 46.5t-8.5 48.5q0 48 33 77.5t93 29.5h24h48v-303h342v303h47z" />
    <glyph glyph-name="uniA78D" unicode="&#xa78d;" horiz-adv-x="588" 
d="M473 684v-684h-48v301q-39 -37 -84 -56.5t-101 -19.5q-87 0 -140 51.5t-53 140.5v267h48v-263q0 -74 40.5 -113.5t113.5 -39.5q54 0 100 21.5t76 58.5v336h48z" />
    <glyph glyph-name="uniA78D.ss02" horiz-adv-x="580" 
d="M418 266h-361v418h47v-377h314v377h47v-684h-47v266z" />
    <glyph glyph-name="uni01F6" unicode="&#x1f6;" horiz-adv-x="962" 
d="M877 262q0 -92 -28 -153t-74.5 -90.5t-103.5 -29.5q-72 0 -119.5 44t-47.5 125v181h-342v-339h-47v684h47v-303h342v303h48v-523q0 -67 32.5 -99.5t87.5 -32.5q67 0 112.5 55.5t45.5 179.5q0 116 -26 258h47q26 -147 26 -260z" />
    <glyph glyph-name="I" unicode="I" horiz-adv-x="277" 
d="M162 0h-47v684h47v-684z" />
    <glyph glyph-name="IJ" unicode="&#x132;" horiz-adv-x="563" 
d="M162 0h-47v684h47v-684zM454 90q0 -58 -13.5 -93.5t-45 -60.5t-89.5 -49l-13 35q46 21 70 42.5t33.5 51t9.5 77.5v591h48v-594z" />
    <glyph glyph-name="Iacute" unicode="&#xcd;" horiz-adv-x="277" 
d="M162 0h-47v684h47v-684zM240 836l-192 -77l-13 29l183 92z" />
    <glyph glyph-name="Ibreve" unicode="&#x12c;" horiz-adv-x="277" 
d="M162 0h-47v684h47v-684zM56 793.5q-34 26.5 -41 65.5l32 8q10 -28 33.5 -44.5t57.5 -16.5t57.5 16.5t33.5 44.5l32 -8q-7 -39 -41 -65.5t-82 -26.5t-82 26.5z" />
    <glyph glyph-name="uni01CF" unicode="&#x1cf;" horiz-adv-x="277" 
d="M162 0h-47v684h47v-684zM279 855l-127 -98h-27l-128 98l21 25l121 -79l119 79z" />
    <glyph glyph-name="Icircumflex" unicode="&#xce;" horiz-adv-x="277" 
d="M162 0h-47v684h47v-684zM138 843l-121 -80l-21 25l128 99h27l127 -99l-21 -25z" />
    <glyph glyph-name="uni0208" unicode="&#x208;" horiz-adv-x="277" 
d="M162 0h-47v684h47v-684zM108 822l-31 -15l-88 136l43 23zM222 826l-31 -15l-80 132l43 22z" />
    <glyph glyph-name="Idieresis" unicode="&#xcf;" horiz-adv-x="277" 
d="M162 0h-47v684h47v-684zM71.5 848.5q9.5 -9.5 9.5 -23.5t-9.5 -23.5t-24.5 -9.5t-24.5 9.5t-9.5 23.5t9.5 23.5t24.5 9.5t24.5 -9.5zM252.5 848.5q9.5 -9.5 9.5 -23.5t-9.5 -23.5t-23.5 -9.5q-15 0 -24.5 9.5t-9.5 23.5t9.5 23.5t24.5 9.5q14 0 23.5 -9.5z" />
    <glyph glyph-name="uni1E2E" unicode="&#x1e2e;" horiz-adv-x="277" 
d="M247 925l-115 -118l-22 20l105 128zM71.5 800q9.5 -10 9.5 -24t-9.5 -23.5t-24.5 -9.5t-24.5 9.5t-9.5 23.5t9.5 24t24.5 10t24.5 -10zM252.5 800q9.5 -10 9.5 -24t-9.5 -23.5t-23.5 -9.5q-15 0 -24.5 9.5t-9.5 23.5t9.5 24t24.5 10q14 0 23.5 -10zM162 0h-47v684h47
v-684z" />
    <glyph glyph-name="Idotaccent" unicode="&#x130;" horiz-adv-x="277" 
d="M162 0h-47v684h47v-684zM164 860q10 -10 10 -25t-10 -25t-26 -10t-26 10t-10 25t10 25t26 10t26 -10z" />
    <glyph glyph-name="uni1ECA" unicode="&#x1eca;" horiz-adv-x="277" 
d="M162 0h-47v684h47v-684zM112.5 -150q-9.5 10 -9.5 25t9.5 25t26.5 10q16 0 26 -10t10 -25t-10 -25t-26 -10q-17 0 -26.5 10z" />
    <glyph glyph-name="Igrave" unicode="&#xcc;" horiz-adv-x="277" 
d="M162 0h-47v684h47v-684zM238 788l-13 -29l-192 77l22 44z" />
    <glyph glyph-name="uni1EC8" unicode="&#x1ec8;" horiz-adv-x="277" 
d="M162 0h-47v684h47v-684zM115 847q33 2 51 12.5t18 35.5q0 20 -12.5 31t-35.5 11q-30 0 -58 -14l-14 30q37 20 77 20t63.5 -20.5t23.5 -54.5q0 -33 -18.5 -51.5t-54.5 -22.5v-46h-40v69z" />
    <glyph glyph-name="uni020A" unicode="&#x20a;" horiz-adv-x="277" 
d="M162 0h-47v684h47v-684zM220.5 870q33.5 -28 40.5 -74l-32 -7q-10 34 -33 52t-58 18t-58 -18t-33 -52l-32 7q7 46 40.5 74t82.5 28t82.5 -28z" />
    <glyph glyph-name="Imacron" unicode="&#x12a;" horiz-adv-x="277" 
d="M162 0h-47v684h47v-684zM23 805v39h229v-39h-229z" />
    <glyph glyph-name="Iogonek" unicode="&#x12e;" horiz-adv-x="277" 
d="M163 -166l-5 -40q-35 -7 -56 -7q-52 0 -79.5 25t-27.5 64q0 41 29.5 72.5t90.5 59.5v676h47v-684q-66 -30 -94 -56t-28 -63q0 -25 16 -39t49 -14q25 0 58 6z" />
    <glyph glyph-name="uni0196" unicode="&#x196;" horiz-adv-x="336" 
d="M318 22q-43 -33 -97 -33q-53 0 -84.5 32.5t-31.5 95.5v567h47v-568q0 -45 19 -65.5t51 -20.5q24 0 41.5 6t34.5 18z" />
    <glyph glyph-name="uni0197" unicode="&#x197;" horiz-adv-x="317" 
d="M288 340h-106v-340h-47v340h-105v40h105v304h47v-304h106v-40z" />
    <glyph glyph-name="Itilde" unicode="&#x128;" horiz-adv-x="277" 
d="M162 0h-47v684h47v-684zM162 802.5q-16 6.5 -36 18.5q-30 19 -47 19t-29.5 -8.5t-27.5 -28.5l-29 15q37 60 86 60q15 0 28 -5.5t33 -17.5q18 -10 30.5 -15.5t25.5 -5.5q16 0 28.5 9.5t28.5 33.5l29 -15q-32 -66 -86 -66q-18 0 -34 6.5z" />
    <glyph glyph-name="J" unicode="J" horiz-adv-x="286" 
d="M177 90q0 -58 -13.5 -93.5t-45 -60.5t-89.5 -49l-13 35q46 21 70 42.5t33.5 51t9.5 77.5v591h48v-594z" />
    <glyph glyph-name="Jcircumflex" unicode="&#x134;" horiz-adv-x="286" 
d="M177 90q0 -58 -13.5 -93.5t-45 -60.5t-89.5 -49l-13 35q46 21 70 42.5t33.5 51t9.5 77.5v591h48v-594zM151 843l-121 -80l-21 25l128 99h27l127 -99l-21 -25z" />
    <glyph glyph-name="uni0248" unicode="&#x248;" horiz-adv-x="297" 
d="M280 323h-103v-233q0 -58 -13.5 -93.5t-45 -60.5t-89.5 -49l-13 35q46 21 70 42.5t33.5 51t9.5 77.5v230h-107v40h107v321h48v-321h103v-40z" />
    <glyph glyph-name="K" unicode="K" horiz-adv-x="533" 
d="M162 0h-47v684h47v-684zM224 369l309 -369h-59l-308 367l295 317h55z" />
    <glyph glyph-name="uni01E8" unicode="&#x1e8;" horiz-adv-x="533" 
d="M162 0h-47v684h47v-684zM224 369l309 -369h-59l-308 367l295 317h55zM440 855l-127 -98h-27l-128 98l21 25l121 -79l119 79z" />
    <glyph glyph-name="Kcommaaccent" unicode="&#x136;" horiz-adv-x="533" 
d="M162 0h-47v684h47v-684zM224 369l309 -369h-59l-308 367l295 317h55zM330.5 -98q10.5 -11 10.5 -27q0 -11 -4 -22.5t-16 -39.5l-40 -86h-29l33 114q-22 11 -22 34q0 16 11.5 27t27.5 11q18 0 28.5 -11z" />
    <glyph glyph-name="uni0198" unicode="&#x198;" horiz-adv-x="564" 
d="M223 369l310 -369h-59l-308 367l184 250q32 44 59 60.5t66 16.5q50 0 89 -37l-22 -29q-32 26 -65 26q-26 0 -45.5 -11.5t-48.5 -51.5zM162 0h-47v684h47v-684z" />
    <glyph glyph-name="L" unicode="L" horiz-adv-x="470" 
d="M162 44h288l-7 -44h-328v684h47v-640z" />
    <glyph glyph-name="uni01C7" unicode="&#x1c7;" horiz-adv-x="756" 
d="M162 44h288l-7 -44h-328v684h47v-640zM647 90q0 -58 -13.5 -93.5t-45 -60.5t-89.5 -49l-13 35q46 21 70 42.5t33.5 51t9.5 77.5v591h48v-594z" />
    <glyph glyph-name="Lacute" unicode="&#x139;" horiz-adv-x="470" 
d="M162 44h288l-7 -44h-328v684h47v-640zM241 836l-192 -77l-13 29l183 92z" />
    <glyph glyph-name="uni023D" unicode="&#x23d;" horiz-adv-x="489" 
d="M469 44l-7 -44h-328v343h-104v40h104v301h48v-301h106v-40h-106v-299h287z" />
    <glyph glyph-name="Lcaron" unicode="&#x13d;" horiz-adv-x="470" 
d="M162 44h288l-7 -44h-328v684h47v-640zM294 683l-35 -156l-30 4l19 158z" />
    <glyph glyph-name="uni1E3C" unicode="&#x1e3c;" horiz-adv-x="470" 
d="M162 44h288l-7 -44h-328v684h47v-640zM140 -174l127 104h27l128 -104l-21 -25l-120 85l-120 -85z" />
    <glyph glyph-name="Lcommaaccent" unicode="&#x13b;" horiz-adv-x="470" 
d="M162 44h288l-7 -44h-328v684h47v-640zM308.5 -98q10.5 -11 10.5 -27q0 -11 -4 -22.5t-16 -39.5l-40 -86h-29l33 114q-22 11 -22 34q0 16 11.5 27t27.5 11q18 0 28.5 -11z" />
    <glyph glyph-name="Ldot" unicode="&#x13f;" horiz-adv-x="470" 
d="M162 44h288l-7 -44h-328v684h47v-640zM388 388q10 -10 10 -25t-10 -25t-26 -10t-26 10t-10 25t10 25t26 10t26 -10z" />
    <glyph glyph-name="uni1E36" unicode="&#x1e36;" horiz-adv-x="470" 
d="M162 44h288l-7 -44h-328v684h47v-640zM255.5 -150q-9.5 10 -9.5 25t9.5 25t26.5 10q16 0 26 -10t10 -25t-10 -25t-26 -10q-17 0 -26.5 10z" />
    <glyph glyph-name="uni01C8" unicode="&#x1c8;" horiz-adv-x="736" 
d="M162 44h288l-7 -44h-328v684h47v-640zM626 14q0 -66 -14 -105t-41 -62.5t-76 -46.5l-13 33q38 19 58 38.5t30 52t10 89.5v509h46v-508zM629 734q10 -10 10 -25t-10 -25t-26 -10t-26 10t-10 25t10 25t26 10t26 -10z" />
    <glyph glyph-name="Lslash" unicode="&#x141;" horiz-adv-x="478" 
d="M458 44l-7 -44h-328v290l-67 -42l-19 32l86 53v351h48v-321l188 118l20 -32l-208 -129v-276h287z" />
    <glyph glyph-name="M" unicode="M" horiz-adv-x="772" 
d="M696 0h-46l-34 334q-19 178 -29 305l-180 -557h-46l-186 557q-4 -70 -21 -247l-5 -53l-32 -339h-45l67 684h67l179 -546l174 546h68z" />
    <glyph glyph-name="uni1E3E" unicode="&#x1e3e;" horiz-adv-x="772" 
d="M696 0h-46l-34 334q-19 178 -29 305l-180 -557h-46l-186 557q-4 -70 -21 -247l-5 -53l-32 -339h-45l67 684h67l179 -546l174 546h68zM485 836l-192 -77l-13 29l183 92z" />
    <glyph glyph-name="uni1E40" unicode="&#x1e40;" horiz-adv-x="772" 
d="M696 0h-46l-34 334q-19 178 -29 305l-180 -557h-46l-186 557q-4 -70 -21 -247l-5 -53l-32 -339h-45l67 684h67l179 -546l174 546h68zM409 860q10 -10 10 -25t-10 -25t-26 -10t-26 10t-10 25t10 25t26 10t26 -10z" />
    <glyph glyph-name="uni019C" unicode="&#x19c;" horiz-adv-x="927" 
d="M812 684v-684h-41l-4 98q-31 -50 -75.5 -79.5t-99.5 -29.5q-57 0 -95 30t-53 85q-34 -53 -80 -84t-102 -31q-75 0 -116 51t-41 142v502h47v-505q0 -72 29.5 -110t85.5 -38q53 0 94 31.5t75 88.5q-1 10 -1 31v502h47v-505q0 -72 29.5 -110t85.5 -38q54 0 95 32t73 89v532
h47z" />
    <glyph glyph-name="N" unicode="N" horiz-adv-x="669" 
d="M554 0h-61l-339 631q6 -88 6 -224v-407h-45v684h61l339 -631q-6 99 -6 200v431h45v-684z" />
    <glyph glyph-name="uni01CA" unicode="&#x1ca;" horiz-adv-x="955" 
d="M554 0h-61l-339 631q6 -88 6 -224v-407h-45v684h61l339 -631q-6 99 -6 200v431h45v-684zM846 90q0 -58 -13.5 -93.5t-45 -60.5t-89.5 -49l-13 35q46 21 70 42.5t33.5 51t9.5 77.5v591h48v-594z" />
    <glyph glyph-name="Nacute" unicode="&#x143;" horiz-adv-x="669" 
d="M554 0h-61l-339 631q6 -88 6 -224v-407h-45v684h61l339 -631q-6 99 -6 200v431h45v-684zM445 836l-192 -77l-13 29l183 92z" />
    <glyph glyph-name="Nacute.loclPLK" horiz-adv-x="669" 
d="M554 0h-61l-339 631q6 -88 6 -224v-407h-45v684h61l339 -631q-6 99 -6 200v431h45v-684zM448 876l-116 -145l-25 16l101 155z" />
    <glyph glyph-name="Ncaron" unicode="&#x147;" horiz-adv-x="669" 
d="M554 0h-61l-339 631q6 -88 6 -224v-407h-45v684h61l339 -631q-6 99 -6 200v431h45v-684zM483 855l-127 -98h-27l-128 98l21 25l121 -79l119 79z" />
    <glyph glyph-name="uni1E4A" unicode="&#x1e4a;" horiz-adv-x="669" 
d="M554 0h-61l-339 631q6 -88 6 -224v-407h-45v684h61l339 -631q-6 99 -6 200v431h45v-684zM193 -174l127 104h27l128 -104l-21 -25l-120 85l-120 -85z" />
    <glyph glyph-name="Ncommaaccent" unicode="&#x145;" horiz-adv-x="669" 
d="M554 0h-61l-339 631q6 -88 6 -224v-407h-45v684h61l339 -631q-6 99 -6 200v431h45v-684zM361.5 -98q10.5 -11 10.5 -27q0 -11 -4 -22.5t-16 -39.5l-40 -86h-29l33 114q-22 11 -22 34q0 16 11.5 27t27.5 11q18 0 28.5 -11z" />
    <glyph glyph-name="uni1E44" unicode="&#x1e44;" horiz-adv-x="669" 
d="M554 0h-61l-339 631q6 -88 6 -224v-407h-45v684h61l339 -631q-6 99 -6 200v431h45v-684zM369 860q10 -10 10 -25t-10 -25t-26 -10t-26 10t-10 25t10 25t26 10t26 -10z" />
    <glyph glyph-name="uni1E46" unicode="&#x1e46;" horiz-adv-x="669" 
d="M554 0h-61l-339 631q6 -88 6 -224v-407h-45v684h61l339 -631q-6 99 -6 200v431h45v-684zM308.5 -150q-9.5 10 -9.5 25t9.5 25t26.5 10q16 0 26 -10t10 -25t-10 -25t-26 -10q-17 0 -26.5 10z" />
    <glyph glyph-name="uni01F8" unicode="&#x1f8;" horiz-adv-x="669" 
d="M554 0h-61l-339 631q6 -88 6 -224v-407h-45v684h61l339 -631q-6 99 -6 200v431h45v-684zM442 788l-13 -29l-192 77l22 44z" />
    <glyph glyph-name="Eng" unicode="&#x14a;" horiz-adv-x="669" 
d="M554 -76q0 -62 -31.5 -94.5t-84.5 -32.5q-54 0 -97 33l20 32q17 -12 34.5 -18t41.5 -6q32 0 51 20.5t19 65.5v76h-14l-339 631q6 -88 6 -224v-407h-45v684h61l339 -631q-6 99 -6 200v431h45v-760z" />
    <glyph glyph-name="Eng.ss01" horiz-adv-x="659" 
d="M552 -76q0 -62 -31.5 -94.5t-84.5 -32.5q-54 0 -97 33l20 32q17 -12 34.5 -18t41.5 -6q32 0 51 20.5t19 65.5v563q0 166 -135 166q-66 0 -115.5 -32t-92.5 -89v-532h-47v684h41l5 -102q87 112 215 112q85 0 130.5 -51.5t45.5 -146.5v-572z" />
    <glyph glyph-name="uni019D" unicode="&#x19d;" horiz-adv-x="669" 
d="M554 684v-684h-61l-339 631q6 -88 6 -224v-483q0 -62 -31.5 -94.5t-83.5 -32.5q-54 0 -97 33l20 30q17 -11 34.5 -17t40.5 -6q72 0 72 86v761h61l339 -631q-6 99 -6 200v431h45z" />
    <glyph glyph-name="uni019D.ss01" horiz-adv-x="659" 
d="M506.5 642.5q45.5 -51.5 45.5 -146.5v-496h-47v487q0 166 -135 166q-66 0 -115.5 -32t-92.5 -89v-608q0 -62 -31.5 -94.5t-84.5 -32.5q-54 0 -97 33l20 32q17 -12 34.5 -18t41.5 -6q32 0 51 20.5t19 65.5v760h41l5 -102q87 112 215 112q85 0 130.5 -51.5z" />
    <glyph glyph-name="uni01CB" unicode="&#x1cb;" horiz-adv-x="935" 
d="M554 0h-61l-339 631q6 -88 6 -224v-407h-45v684h61l339 -631q-6 99 -6 200v431h45v-684zM825 14q0 -66 -14 -105t-41 -62.5t-76 -46.5l-13 33q38 19 58 38.5t30 52t10 89.5v509h46v-508zM828 734q10 -10 10 -25t-10 -25t-26 -10t-26 10t-10 25t10 25t26 10t26 -10z" />
    <glyph glyph-name="uni0220" unicode="&#x220;" horiz-adv-x="659" 
d="M506.5 642.5q45.5 -51.5 45.5 -146.5v-691h-47v682q0 166 -135 166q-66 0 -115.5 -32t-92.5 -89v-532h-47v684h41l5 -102q87 112 215 112q85 0 130.5 -51.5z" />
    <glyph glyph-name="Ntilde" unicode="&#xd1;" horiz-adv-x="669" 
d="M554 0h-61l-339 631q6 -88 6 -224v-407h-45v684h61l339 -631q-6 99 -6 200v431h45v-684zM367 802.5q-16 6.5 -36 18.5q-30 19 -47 19t-29.5 -8.5t-27.5 -28.5l-29 15q37 60 86 60q15 0 28 -5.5t33 -17.5q18 -10 30.5 -15.5t25.5 -5.5q16 0 28.5 9.5t28.5 33.5l29 -15
q-32 -66 -86 -66q-18 0 -34 6.5z" />
    <glyph glyph-name="O" unicode="O" horiz-adv-x="691" 
d="M490 653.5q62 -40.5 96.5 -120t34.5 -192.5q0 -111 -34 -190t-96 -120.5t-146 -41.5q-82 0 -144 41t-96.5 120t-34.5 190t34.5 191t97 121.5t143.5 41.5q83 0 145 -40.5zM180.5 573.5q-60.5 -79.5 -60.5 -233.5q0 -151 61 -230t164 -79q107 0 166.5 78.5t59.5 231.5
q0 154 -60 233t-166 79q-104 0 -164.5 -79.5z" />
    <glyph glyph-name="uni0222" unicode="&#x222;" horiz-adv-x="636" 
d="M529 316q37 -49 37 -120q0 -58 -27.5 -105t-83.5 -74.5t-137 -27.5q-79 0 -135 27t-84.5 73.5t-28.5 105.5q0 69 37 119t106 71q-96 40 -96 170v129h48v-128q0 -73 34.5 -113.5t118.5 -40.5q85 0 121 41t36 113v128h47v-129q0 -60 -24.5 -103.5t-75.5 -65.5
q70 -21 107 -70zM468 74q48 43 48 122t-48.5 122t-149.5 43q-98 0 -148 -44t-50 -122q0 -77 49.5 -120.5t148.5 -43.5q102 0 150 43z" />
    <glyph glyph-name="Oacute" unicode="&#xd3;" horiz-adv-x="691" 
d="M490 653.5q62 -40.5 96.5 -120t34.5 -192.5q0 -111 -34 -190t-96 -120.5t-146 -41.5q-82 0 -144 41t-96.5 120t-34.5 190t34.5 191t97 121.5t143.5 41.5q83 0 145 -40.5zM180.5 573.5q-60.5 -79.5 -60.5 -233.5q0 -151 61 -230t164 -79q107 0 166.5 78.5t59.5 231.5
q0 154 -60 233t-166 79q-104 0 -164.5 -79.5zM447 836l-192 -77l-13 29l183 92z" />
    <glyph glyph-name="Oacute.loclPLK" horiz-adv-x="691" 
d="M490 653.5q62 -40.5 96.5 -120t34.5 -192.5q0 -111 -34 -190t-96 -120.5t-146 -41.5q-82 0 -144 41t-96.5 120t-34.5 190t34.5 191t97 121.5t143.5 41.5q83 0 145 -40.5zM180.5 573.5q-60.5 -79.5 -60.5 -233.5q0 -151 61 -230t164 -79q107 0 166.5 78.5t59.5 231.5
q0 154 -60 233t-166 79q-104 0 -164.5 -79.5zM450 876l-116 -145l-25 16l101 155z" />
    <glyph glyph-name="Obreve" unicode="&#x14e;" horiz-adv-x="691" 
d="M490 653.5q62 -40.5 96.5 -120t34.5 -192.5q0 -111 -34 -190t-96 -120.5t-146 -41.5q-82 0 -144 41t-96.5 120t-34.5 190t34.5 191t97 121.5t143.5 41.5q83 0 145 -40.5zM180.5 573.5q-60.5 -79.5 -60.5 -233.5q0 -151 61 -230t164 -79q107 0 166.5 78.5t59.5 231.5
q0 154 -60 233t-166 79q-104 0 -164.5 -79.5zM263 793.5q-34 26.5 -41 65.5l32 8q10 -28 33.5 -44.5t57.5 -16.5t57.5 16.5t33.5 44.5l32 -8q-7 -39 -41 -65.5t-82 -26.5t-82 26.5z" />
    <glyph glyph-name="uni01D1" unicode="&#x1d1;" horiz-adv-x="691" 
d="M490 653.5q62 -40.5 96.5 -120t34.5 -192.5q0 -111 -34 -190t-96 -120.5t-146 -41.5q-82 0 -144 41t-96.5 120t-34.5 190t34.5 191t97 121.5t143.5 41.5q83 0 145 -40.5zM180.5 573.5q-60.5 -79.5 -60.5 -233.5q0 -151 61 -230t164 -79q107 0 166.5 78.5t59.5 231.5
q0 154 -60 233t-166 79q-104 0 -164.5 -79.5zM486 855l-127 -98h-27l-128 98l21 25l121 -79l119 79z" />
    <glyph glyph-name="uni019F" unicode="&#x19f;" horiz-adv-x="691" 
d="M490 653.5q62 -40.5 96.5 -120t34.5 -193.5q0 -110 -34 -189t-96 -120.5t-146 -41.5q-82 0 -144 41t-96.5 119.5t-34.5 189.5t34.5 191t97 122t143.5 42q83 0 145 -40.5zM186.5 581q-60.5 -72 -66.5 -212h451q-6 141 -66 212.5t-160 71.5q-98 0 -158.5 -72zM510.5 107
q59.5 76 61.5 223h-453q1 -146 62.5 -222.5t163.5 -76.5q106 0 165.5 76z" />
    <glyph glyph-name="Ocircumflex" unicode="&#xd4;" horiz-adv-x="691" 
d="M490 653.5q62 -40.5 96.5 -120t34.5 -192.5q0 -111 -34 -190t-96 -120.5t-146 -41.5q-82 0 -144 41t-96.5 120t-34.5 190t34.5 191t97 121.5t143.5 41.5q83 0 145 -40.5zM180.5 573.5q-60.5 -79.5 -60.5 -233.5q0 -151 61 -230t164 -79q107 0 166.5 78.5t59.5 231.5
q0 154 -60 233t-166 79q-104 0 -164.5 -79.5zM345 843l-121 -80l-21 25l128 99h27l127 -99l-21 -25z" />
    <glyph glyph-name="uni1ED0" unicode="&#x1ed0;" horiz-adv-x="691" 
d="M569 949l-115 -118l-22 20l105 128zM345 811l-121 -80l-21 25l128 99h27l127 -99l-21 -25zM490 653.5q62 -40.5 96.5 -120t34.5 -192.5q0 -111 -34 -190t-96 -120.5t-146 -41.5q-82 0 -144 41t-96.5 120t-34.5 190t34.5 191t97 121.5t143.5 41.5q83 0 145 -40.5z
M180.5 573.5q-60.5 -79.5 -60.5 -233.5q0 -151 61 -230t164 -79q107 0 166.5 78.5t59.5 231.5q0 154 -60 233t-166 79q-104 0 -164.5 -79.5z" />
    <glyph glyph-name="uni1ED8" unicode="&#x1ed8;" horiz-adv-x="691" 
d="M490 653.5q62 -40.5 96.5 -120t34.5 -192.5q0 -111 -34 -190t-96 -120.5t-146 -41.5q-82 0 -144 41t-96.5 120t-34.5 190t34.5 191t97 121.5t143.5 41.5q83 0 145 -40.5zM180.5 573.5q-60.5 -79.5 -60.5 -233.5q0 -151 61 -230t164 -79q107 0 166.5 78.5t59.5 231.5
q0 154 -60 233t-166 79q-104 0 -164.5 -79.5zM345 843l-121 -80l-21 25l128 99h27l127 -99l-21 -25zM318.5 -150q-9.5 10 -9.5 25t9.5 25t26.5 10q16 0 26 -10t10 -25t-10 -25t-26 -10q-17 0 -26.5 10z" />
    <glyph glyph-name="uni1ED2" unicode="&#x1ed2;" horiz-adv-x="691" 
d="M263 851l-22 -20l-114 118l32 30zM346 811l-121 -80l-21 25l128 99h27l127 -99l-21 -25zM490 653.5q62 -40.5 96.5 -120t34.5 -192.5q0 -111 -34 -190t-96 -120.5t-146 -41.5q-82 0 -144 41t-96.5 120t-34.5 190t34.5 191t97 121.5t143.5 41.5q83 0 145 -40.5z
M180.5 573.5q-60.5 -79.5 -60.5 -233.5q0 -151 61 -230t164 -79q107 0 166.5 78.5t59.5 231.5q0 154 -60 233t-166 79q-104 0 -164.5 -79.5z" />
    <glyph glyph-name="uni1ED4" unicode="&#x1ed4;" horiz-adv-x="691" 
d="M444 880q33 2 51 12.5t18 35.5q0 20 -12.5 31t-35.5 11q-30 0 -58 -14l-14 30q37 20 77 20t63.5 -20.5t23.5 -54.5q0 -33 -18.5 -51.5t-54.5 -22.5v-46h-40v69zM345 811l-121 -80l-21 25l128 99h27l127 -99l-21 -25zM490 653.5q62 -40.5 96.5 -120t34.5 -192.5
q0 -111 -34 -190t-96 -120.5t-146 -41.5q-82 0 -144 41t-96.5 120t-34.5 190t34.5 191t97 121.5t143.5 41.5q83 0 145 -40.5zM180.5 573.5q-60.5 -79.5 -60.5 -233.5q0 -151 61 -230t164 -79q107 0 166.5 78.5t59.5 231.5q0 154 -60 233t-166 79q-104 0 -164.5 -79.5z" />
    <glyph glyph-name="uni1ED6" unicode="&#x1ed6;" horiz-adv-x="691" 
d="M369 901.5q-16 6.5 -36 18.5q-30 19 -47 19t-29.5 -8.5t-27.5 -28.5l-29 15q37 60 86 60q15 0 28 -5.5t33 -17.5q18 -10 30.5 -15.5t25.5 -5.5q16 0 28.5 9.5t28.5 33.5l29 -15q-32 -66 -86 -66q-18 0 -34 6.5zM345 811l-121 -80l-21 25l128 99h27l127 -99l-21 -25z
M490 653.5q62 -40.5 96.5 -120t34.5 -192.5q0 -111 -34 -190t-96 -120.5t-146 -41.5q-82 0 -144 41t-96.5 120t-34.5 190t34.5 191t97 121.5t143.5 41.5q83 0 145 -40.5zM180.5 573.5q-60.5 -79.5 -60.5 -233.5q0 -151 61 -230t164 -79q107 0 166.5 78.5t59.5 231.5
q0 154 -60 233t-166 79q-104 0 -164.5 -79.5z" />
    <glyph glyph-name="uni020C" unicode="&#x20c;" horiz-adv-x="691" 
d="M490 653.5q62 -40.5 96.5 -120t34.5 -192.5q0 -111 -34 -190t-96 -120.5t-146 -41.5q-82 0 -144 41t-96.5 120t-34.5 190t34.5 191t97 121.5t143.5 41.5q83 0 145 -40.5zM180.5 573.5q-60.5 -79.5 -60.5 -233.5q0 -151 61 -230t164 -79q107 0 166.5 78.5t59.5 231.5
q0 154 -60 233t-166 79q-104 0 -164.5 -79.5zM315 822l-31 -15l-88 136l43 23zM429 826l-31 -15l-80 132l43 22z" />
    <glyph glyph-name="Odieresis" unicode="&#xd6;" horiz-adv-x="691" 
d="M490 653.5q62 -40.5 96.5 -120t34.5 -192.5q0 -111 -34 -190t-96 -120.5t-146 -41.5q-82 0 -144 41t-96.5 120t-34.5 190t34.5 191t97 121.5t143.5 41.5q83 0 145 -40.5zM180.5 573.5q-60.5 -79.5 -60.5 -233.5q0 -151 61 -230t164 -79q107 0 166.5 78.5t59.5 231.5
q0 154 -60 233t-166 79q-104 0 -164.5 -79.5zM278.5 848.5q9.5 -9.5 9.5 -23.5t-9.5 -23.5t-24.5 -9.5t-24.5 9.5t-9.5 23.5t9.5 23.5t24.5 9.5t24.5 -9.5zM459.5 848.5q9.5 -9.5 9.5 -23.5t-9.5 -23.5t-23.5 -9.5q-15 0 -24.5 9.5t-9.5 23.5t9.5 23.5t24.5 9.5
q14 0 23.5 -9.5z" />
    <glyph glyph-name="uni022A" unicode="&#x22a;" horiz-adv-x="691" 
d="M232 869v39h229v-39h-229zM278.5 799.5q9.5 -9.5 9.5 -23.5t-9.5 -23.5t-24.5 -9.5t-24.5 9.5t-9.5 23.5t9.5 23.5t24.5 9.5t24.5 -9.5zM459.5 799.5q9.5 -9.5 9.5 -23.5t-9.5 -23.5t-23.5 -9.5q-15 0 -24.5 9.5t-9.5 23.5t9.5 23.5t24.5 9.5q14 0 23.5 -9.5zM490 653.5
q62 -40.5 96.5 -120t34.5 -192.5q0 -111 -34 -190t-96 -120.5t-146 -41.5q-82 0 -144 41t-96.5 120t-34.5 190t34.5 191t97 121.5t143.5 41.5q83 0 145 -40.5zM180.5 573.5q-60.5 -79.5 -60.5 -233.5q0 -151 61 -230t164 -79q107 0 166.5 78.5t59.5 231.5q0 154 -60 233
t-166 79q-104 0 -164.5 -79.5z" />
    <glyph glyph-name="uni022E" unicode="&#x22e;" horiz-adv-x="691" 
d="M490 653.5q62 -40.5 96.5 -120t34.5 -192.5q0 -111 -34 -190t-96 -120.5t-146 -41.5q-82 0 -144 41t-96.5 120t-34.5 190t34.5 191t97 121.5t143.5 41.5q83 0 145 -40.5zM180.5 573.5q-60.5 -79.5 -60.5 -233.5q0 -151 61 -230t164 -79q107 0 166.5 78.5t59.5 231.5
q0 154 -60 233t-166 79q-104 0 -164.5 -79.5zM371 860q10 -10 10 -25t-10 -25t-26 -10t-26 10t-10 25t10 25t26 10t26 -10z" />
    <glyph glyph-name="uni0230" unicode="&#x230;" horiz-adv-x="691" 
d="M232 869v39h229v-39h-229zM372 803q10 -10 10 -25t-10 -25t-26 -10t-26 10t-10 25t10 25t26 10t26 -10zM490 653.5q62 -40.5 96.5 -120t34.5 -192.5q0 -111 -34 -190t-96 -120.5t-146 -41.5q-82 0 -144 41t-96.5 120t-34.5 190t34.5 191t97 121.5t143.5 41.5
q83 0 145 -40.5zM180.5 573.5q-60.5 -79.5 -60.5 -233.5q0 -151 61 -230t164 -79q107 0 166.5 78.5t59.5 231.5q0 154 -60 233t-166 79q-104 0 -164.5 -79.5z" />
    <glyph glyph-name="uni1ECC" unicode="&#x1ecc;" horiz-adv-x="691" 
d="M490 653.5q62 -40.5 96.5 -120t34.5 -192.5q0 -111 -34 -190t-96 -120.5t-146 -41.5q-82 0 -144 41t-96.5 120t-34.5 190t34.5 191t97 121.5t143.5 41.5q83 0 145 -40.5zM180.5 573.5q-60.5 -79.5 -60.5 -233.5q0 -151 61 -230t164 -79q107 0 166.5 78.5t59.5 231.5
q0 154 -60 233t-166 79q-104 0 -164.5 -79.5zM318.5 -150q-9.5 10 -9.5 25t9.5 25t26.5 10q16 0 26 -10t10 -25t-10 -25t-26 -10q-17 0 -26.5 10z" />
    <glyph glyph-name="Ograve" unicode="&#xd2;" horiz-adv-x="691" 
d="M490 653.5q62 -40.5 96.5 -120t34.5 -192.5q0 -111 -34 -190t-96 -120.5t-146 -41.5q-82 0 -144 41t-96.5 120t-34.5 190t34.5 191t97 121.5t143.5 41.5q83 0 145 -40.5zM180.5 573.5q-60.5 -79.5 -60.5 -233.5q0 -151 61 -230t164 -79q107 0 166.5 78.5t59.5 231.5
q0 154 -60 233t-166 79q-104 0 -164.5 -79.5zM445 788l-13 -29l-192 77l22 44z" />
    <glyph glyph-name="uni1ECE" unicode="&#x1ece;" horiz-adv-x="691" 
d="M490 653.5q62 -40.5 96.5 -120t34.5 -192.5q0 -111 -34 -190t-96 -120.5t-146 -41.5q-82 0 -144 41t-96.5 120t-34.5 190t34.5 191t97 121.5t143.5 41.5q83 0 145 -40.5zM180.5 573.5q-60.5 -79.5 -60.5 -233.5q0 -151 61 -230t164 -79q107 0 166.5 78.5t59.5 231.5
q0 154 -60 233t-166 79q-104 0 -164.5 -79.5zM322 847q33 2 51 12.5t18 35.5q0 20 -12.5 31t-35.5 11q-30 0 -58 -14l-14 30q37 20 77 20t63.5 -20.5t23.5 -54.5q0 -33 -18.5 -51.5t-54.5 -22.5v-46h-40v69z" />
    <glyph glyph-name="Ohorn" unicode="&#x1a0;" horiz-adv-x="691" 
d="M603.5 628q-19.5 -23 -55.5 -28q73 -94 73 -259q0 -111 -34 -190t-96 -120.5t-146 -41.5q-82 0 -144 41t-96.5 120t-34.5 190t34.5 191t97 121.5t143.5 41.5q109 0 179 -67q31 4 45 18t14 41q0 37 -14 72l36 11q18 -34 18 -82q0 -36 -19.5 -59zM511.5 109.5
q59.5 78.5 59.5 231.5q0 154 -60 233t-166 79q-104 0 -164.5 -79.5t-60.5 -233.5q0 -151 61 -230t164 -79q107 0 166.5 78.5z" />
    <glyph glyph-name="uni1EDA" unicode="&#x1eda;" horiz-adv-x="691" 
d="M255 759l-13 29l183 92l22 -44zM603.5 628q-19.5 -23 -55.5 -28q73 -94 73 -259q0 -111 -34 -190t-96 -120.5t-146 -41.5q-82 0 -144 41t-96.5 120t-34.5 190t34.5 191t97 121.5t143.5 41.5q109 0 179 -67q31 4 45 18t14 41q0 37 -14 72l36 11q18 -34 18 -82
q0 -36 -19.5 -59zM511.5 109.5q59.5 78.5 59.5 231.5q0 154 -60 233t-166 79q-104 0 -164.5 -79.5t-60.5 -233.5q0 -151 61 -230t164 -79q107 0 166.5 78.5z" />
    <glyph glyph-name="uni1EE2" unicode="&#x1ee2;" horiz-adv-x="691" 
d="M603.5 628q-19.5 -23 -55.5 -28q73 -94 73 -259q0 -111 -34 -190t-96 -120.5t-146 -41.5q-82 0 -144 41t-96.5 120t-34.5 190t34.5 191t97 121.5t143.5 41.5q109 0 179 -67q31 4 45 18t14 41q0 37 -14 72l36 11q18 -34 18 -82q0 -36 -19.5 -59zM511.5 109.5
q59.5 78.5 59.5 231.5q0 154 -60 233t-166 79q-104 0 -164.5 -79.5t-60.5 -233.5q0 -151 61 -230t164 -79q107 0 166.5 78.5zM371 -100q10 -10 10 -25t-10 -25t-26 -10q-17 0 -26.5 10t-9.5 25t9.5 25t26.5 10q16 0 26 -10z" />
    <glyph glyph-name="uni1EDC" unicode="&#x1edc;" horiz-adv-x="691" 
d="M432 759l-192 77l22 44l183 -92zM603.5 628q-19.5 -23 -55.5 -28q73 -94 73 -259q0 -111 -34 -190t-96 -120.5t-146 -41.5q-82 0 -144 41t-96.5 120t-34.5 190t34.5 191t97 121.5t143.5 41.5q109 0 179 -67q31 4 45 18t14 41q0 37 -14 72l36 11q18 -34 18 -82
q0 -36 -19.5 -59zM511.5 109.5q59.5 78.5 59.5 231.5q0 154 -60 233t-166 79q-104 0 -164.5 -79.5t-60.5 -233.5q0 -151 61 -230t164 -79q107 0 166.5 78.5z" />
    <glyph glyph-name="uni1EDE" unicode="&#x1ede;" horiz-adv-x="691" 
d="M285 923l-14 30q37 20 77 20t63.5 -20.5t23.5 -54.5q0 -33 -18.5 -51.5t-54.5 -22.5v-46h-40v69q33 2 51 12.5t18 35.5q0 20 -12.5 31t-35.5 11q-30 0 -58 -14zM603.5 628q-19.5 -23 -55.5 -28q73 -94 73 -259q0 -111 -34 -190t-96 -120.5t-146 -41.5q-82 0 -144 41
t-96.5 120t-34.5 190t34.5 191t97 121.5t143.5 41.5q109 0 179 -67q31 4 45 18t14 41q0 37 -14 72l36 11q18 -34 18 -82q0 -36 -19.5 -59zM511.5 109.5q59.5 78.5 59.5 231.5q0 154 -60 233t-166 79q-104 0 -164.5 -79.5t-60.5 -233.5q0 -151 61 -230t164 -79
q107 0 166.5 78.5z" />
    <glyph glyph-name="uni1EE0" unicode="&#x1ee0;" horiz-adv-x="691" 
d="M257.5 831.5q-12.5 -8.5 -27.5 -28.5l-29 15q37 60 86 60q15 0 28 -5.5t33 -17.5q18 -10 30.5 -15.5t25.5 -5.5q16 0 28.5 9.5t28.5 33.5l29 -15q-32 -66 -86 -66q-18 0 -34 6.5t-36 18.5q-30 19 -47 19t-29.5 -8.5zM603.5 628q-19.5 -23 -55.5 -28q73 -94 73 -259
q0 -111 -34 -190t-96 -120.5t-146 -41.5q-82 0 -144 41t-96.5 120t-34.5 190t34.5 191t97 121.5t143.5 41.5q109 0 179 -67q31 4 45 18t14 41q0 37 -14 72l36 11q18 -34 18 -82q0 -36 -19.5 -59zM511.5 109.5q59.5 78.5 59.5 231.5q0 154 -60 233t-166 79
q-104 0 -164.5 -79.5t-60.5 -233.5q0 -151 61 -230t164 -79q107 0 166.5 78.5z" />
    <glyph glyph-name="Ohungarumlaut" unicode="&#x150;" horiz-adv-x="691" 
d="M490 653.5q62 -40.5 96.5 -120t34.5 -192.5q0 -111 -34 -190t-96 -120.5t-146 -41.5q-82 0 -144 41t-96.5 120t-34.5 190t34.5 191t97 121.5t143.5 41.5q83 0 145 -40.5zM180.5 573.5q-60.5 -79.5 -60.5 -233.5q0 -151 61 -230t164 -79q107 0 166.5 78.5t59.5 231.5
q0 154 -60 233t-166 79q-104 0 -164.5 -79.5zM494 907l-88 -136l-31 15l76 144zM373 907l-81 -132l-31 15l69 139z" />
    <glyph glyph-name="uni01A2" unicode="&#x1a2;" horiz-adv-x="895" 
d="M745 660.5q35 -34.5 35 -104.5v-751h-48v751q0 55 -22.5 77.5t-66.5 22.5q-31 0 -58.5 -9t-56.5 -25q45 -45 69 -116t24 -165q0 -111 -34 -190t-96 -120.5t-146 -41.5q-82 0 -144 41t-96.5 120t-34.5 190t34.5 191t97 121.5t143.5 41.5q89 0 154 -47q37 23 71.5 35.5
t74.5 12.5q65 0 100 -34.5zM511.5 109.5q59.5 78.5 59.5 231.5q0 154 -60 233t-166 79q-104 0 -164.5 -79.5t-60.5 -233.5q0 -151 61 -230t164 -79q107 0 166.5 78.5z" />
    <glyph glyph-name="uni020E" unicode="&#x20e;" horiz-adv-x="691" 
d="M490 653.5q62 -40.5 96.5 -120t34.5 -192.5q0 -111 -34 -190t-96 -120.5t-146 -41.5q-82 0 -144 41t-96.5 120t-34.5 190t34.5 191t97 121.5t143.5 41.5q83 0 145 -40.5zM180.5 573.5q-60.5 -79.5 -60.5 -233.5q0 -151 61 -230t164 -79q107 0 166.5 78.5t59.5 231.5
q0 154 -60 233t-166 79q-104 0 -164.5 -79.5zM427.5 870q33.5 -28 40.5 -74l-32 -7q-10 34 -33 52t-58 18t-58 -18t-33 -52l-32 7q7 46 40.5 74t82.5 28t82.5 -28z" />
    <glyph glyph-name="Omacron" unicode="&#x14c;" horiz-adv-x="691" 
d="M490 653.5q62 -40.5 96.5 -120t34.5 -192.5q0 -111 -34 -190t-96 -120.5t-146 -41.5q-82 0 -144 41t-96.5 120t-34.5 190t34.5 191t97 121.5t143.5 41.5q83 0 145 -40.5zM180.5 573.5q-60.5 -79.5 -60.5 -233.5q0 -151 61 -230t164 -79q107 0 166.5 78.5t59.5 231.5
q0 154 -60 233t-166 79q-104 0 -164.5 -79.5zM231 805v39h229v-39h-229z" />
    <glyph glyph-name="uni1E52" unicode="&#x1e52;" horiz-adv-x="691" 
d="M450 928l-192 -77l-13 29l183 92zM231 764v39h229v-39h-229zM490 653.5q62 -40.5 96.5 -120t34.5 -192.5q0 -111 -34 -190t-96 -120.5t-146 -41.5q-82 0 -144 41t-96.5 120t-34.5 190t34.5 191t97 121.5t143.5 41.5q83 0 145 -40.5zM180.5 573.5
q-60.5 -79.5 -60.5 -233.5q0 -151 61 -230t164 -79q107 0 166.5 78.5t59.5 231.5q0 154 -60 233t-166 79q-104 0 -164.5 -79.5z" />
    <glyph glyph-name="uni1E50" unicode="&#x1e50;" horiz-adv-x="691" 
d="M447 880l-13 -29l-192 77l22 44zM231 764v39h229v-39h-229zM490 653.5q62 -40.5 96.5 -120t34.5 -192.5q0 -111 -34 -190t-96 -120.5t-146 -41.5q-82 0 -144 41t-96.5 120t-34.5 190t34.5 191t97 121.5t143.5 41.5q83 0 145 -40.5zM180.5 573.5q-60.5 -79.5 -60.5 -233.5
q0 -151 61 -230t164 -79q107 0 166.5 78.5t59.5 231.5q0 154 -60 233t-166 79q-104 0 -164.5 -79.5z" />
    <glyph glyph-name="uni01EA" unicode="&#x1ea;" horiz-adv-x="691" 
d="M569 115q-52 -88 -145 -115q-66 -30 -94 -56t-28 -63q0 -25 16 -39t49 -14q25 0 58 6l-5 -40q-35 -7 -56 -7q-52 0 -79.5 25t-27.5 64q0 35 20.5 62.5t63.5 51.5q-81 1 -142 42t-95 119.5t-34 188.5q0 111 34.5 191t97 121.5t143.5 41.5q83 0 145 -40.5t96.5 -120
t34.5 -192.5q0 -138 -52 -226zM511.5 109.5q59.5 78.5 59.5 231.5q0 154 -60 233t-166 79q-104 0 -164.5 -79.5t-60.5 -233.5q0 -151 61 -230t164 -79q107 0 166.5 78.5z" />
    <glyph glyph-name="uni01EC" unicode="&#x1ec;" horiz-adv-x="691" 
d="M460 805h-229v39h229v-39zM569 115q-52 -88 -145 -115q-66 -30 -94 -56t-28 -63q0 -25 16 -39t49 -14q25 0 58 6l-5 -40q-35 -7 -56 -7q-52 0 -79.5 25t-27.5 64q0 35 20.5 62.5t63.5 51.5q-81 1 -142 42t-95 119.5t-34 188.5q0 111 34.5 191t97 121.5t143.5 41.5
q83 0 145 -40.5t96.5 -120t34.5 -192.5q0 -138 -52 -226zM511.5 109.5q59.5 78.5 59.5 231.5q0 154 -60 233t-166 79q-104 0 -164.5 -79.5t-60.5 -233.5q0 -151 61 -230t164 -79q107 0 166.5 78.5z" />
    <glyph glyph-name="uni0186" unicode="&#x186;" horiz-adv-x="547" 
d="M355.5 654.5q57.5 -39.5 89.5 -118.5t32 -194q0 -112 -35 -191.5t-96 -120.5t-139 -41q-105 0 -183 69l26 31q39 -28 73.5 -42.5t82.5 -14.5q63 0 113 34.5t79 104t29 171.5q0 159 -57 235t-152 76q-46 0 -84.5 -13t-76.5 -39l-25 32q82 61 189 61q77 0 134.5 -39.5z" />
    <glyph glyph-name="Oslash" unicode="&#xd8;" horiz-adv-x="691" 
d="M579.5 550q41.5 -84 41.5 -209q0 -111 -34 -190t-96 -120.5t-146 -41.5q-43 0 -81 12l-33 -118l-43 12l38 121q-74 37 -115 119.5t-41 204.5q0 111 34.5 191t97 121.5t143.5 41.5q45 0 79 -10l35 123l43 -12l-39 -126q75 -35 116.5 -119zM152 159.5q32 -71.5 90 -103.5
l174 587q-37 10 -71 10q-104 0 -164.5 -79.5t-60.5 -233.5q0 -109 32 -180.5zM511.5 109.5q59.5 78.5 59.5 231.5q0 113 -32.5 185.5t-91.5 103.5l-174 -588q36 -11 72 -11q107 0 166.5 78.5z" />
    <glyph glyph-name="Oslashacute" unicode="&#x1fe;" horiz-adv-x="691" 
d="M579.5 550q41.5 -84 41.5 -209q0 -111 -34 -190t-96 -120.5t-146 -41.5q-43 0 -81 12l-33 -118l-43 12l38 121q-74 37 -115 119.5t-41 204.5q0 111 34.5 191t97 121.5t143.5 41.5q45 0 79 -10l35 123l43 -12l-39 -126q75 -35 116.5 -119zM152 159.5q32 -71.5 90 -103.5
l174 587q-37 10 -71 10q-104 0 -164.5 -79.5t-60.5 -233.5q0 -109 32 -180.5zM511.5 109.5q59.5 78.5 59.5 231.5q0 113 -32.5 185.5t-91.5 103.5l-174 -588q36 -11 72 -11q107 0 166.5 78.5zM440 847l-192 -77l-13 29l183 92z" />
    <glyph glyph-name="Otilde" unicode="&#xd5;" horiz-adv-x="691" 
d="M490 653.5q62 -40.5 96.5 -120t34.5 -192.5q0 -111 -34 -190t-96 -120.5t-146 -41.5q-82 0 -144 41t-96.5 120t-34.5 190t34.5 191t97 121.5t143.5 41.5q83 0 145 -40.5zM180.5 573.5q-60.5 -79.5 -60.5 -233.5q0 -151 61 -230t164 -79q107 0 166.5 78.5t59.5 231.5
q0 154 -60 233t-166 79q-104 0 -164.5 -79.5zM370 802.5q-16 6.5 -36 18.5q-30 19 -47 19t-29.5 -8.5t-27.5 -28.5l-29 15q37 60 86 60q15 0 28 -5.5t33 -17.5q18 -10 30.5 -15.5t25.5 -5.5q16 0 28.5 9.5t28.5 33.5l29 -15q-32 -66 -86 -66q-18 0 -34 6.5z" />
    <glyph glyph-name="uni1E4C" unicode="&#x1e4c;" horiz-adv-x="691" 
d="M448 949l-192 -77l-13 29l183 92zM370 763.5q-16 6.5 -36 18.5q-30 19 -47 19t-29.5 -8.5t-27.5 -28.5l-29 15q37 60 86 60q15 0 28 -5.5t33 -17.5q18 -10 30.5 -15.5t25.5 -5.5q16 0 28.5 9.5t28.5 33.5l29 -15q-32 -66 -86 -66q-18 0 -34 6.5zM490 653.5
q62 -40.5 96.5 -120t34.5 -192.5q0 -111 -34 -190t-96 -120.5t-146 -41.5q-82 0 -144 41t-96.5 120t-34.5 190t34.5 191t97 121.5t143.5 41.5q83 0 145 -40.5zM180.5 573.5q-60.5 -79.5 -60.5 -233.5q0 -151 61 -230t164 -79q107 0 166.5 78.5t59.5 231.5q0 154 -60 233
t-166 79q-104 0 -164.5 -79.5z" />
    <glyph glyph-name="uni022C" unicode="&#x22c;" horiz-adv-x="691" 
d="M231 887v39h229v-39h-229zM370 763.5q-16 6.5 -36 18.5q-30 19 -47 19t-29.5 -8.5t-27.5 -28.5l-29 15q37 60 86 60q15 0 28 -5.5t33 -17.5q18 -10 30.5 -15.5t25.5 -5.5q16 0 28.5 9.5t28.5 33.5l29 -15q-32 -66 -86 -66q-18 0 -34 6.5zM490 653.5q62 -40.5 96.5 -120
t34.5 -192.5q0 -111 -34 -190t-96 -120.5t-146 -41.5q-82 0 -144 41t-96.5 120t-34.5 190t34.5 191t97 121.5t143.5 41.5q83 0 145 -40.5zM180.5 573.5q-60.5 -79.5 -60.5 -233.5q0 -151 61 -230t164 -79q107 0 166.5 78.5t59.5 231.5q0 154 -60 233t-166 79
q-104 0 -164.5 -79.5z" />
    <glyph glyph-name="OE" unicode="&#x152;" horiz-adv-x="863" 
d="M817 0h-415q-33 -11 -68 -11q-77 0 -136.5 41t-93.5 120t-34 190q0 110 34 190t94 122t136 42q40 0 71 -10h406l-6 -41h-324q54 -39 84.5 -106t34.5 -160h166v-41h-165q-2 -105 -33.5 -180t-89.5 -115h339v-41zM147.5 169.5q27.5 -69.5 76 -104t111.5 -34.5
q101 0 158.5 80t57.5 237q0 149 -58.5 227t-157.5 78q-63 0 -111.5 -35t-76 -105t-27.5 -173q0 -101 27.5 -170.5z" />
    <glyph glyph-name="P" unicode="P" horiz-adv-x="566" 
d="M453 634q64 -50 64 -153q0 -109 -67.5 -159t-184.5 -50h-103v-272h-47v684h153q121 0 185 -50zM414.5 350.5q52.5 38.5 52.5 129.5q0 88 -50 125.5t-149 37.5h-106v-331h104q96 0 148.5 38.5z" />
    <glyph glyph-name="uni1E54" unicode="&#x1e54;" horiz-adv-x="566" 
d="M453 634q64 -50 64 -153q0 -109 -67.5 -159t-184.5 -50h-103v-272h-47v684h153q121 0 185 -50zM414.5 350.5q52.5 38.5 52.5 129.5q0 88 -50 125.5t-149 37.5h-106v-331h104q96 0 148.5 38.5zM386 836l-192 -77l-13 29l183 92z" />
    <glyph glyph-name="uni1E56" unicode="&#x1e56;" horiz-adv-x="566" 
d="M453 634q64 -50 64 -153q0 -109 -67.5 -159t-184.5 -50h-103v-272h-47v684h153q121 0 185 -50zM414.5 350.5q52.5 38.5 52.5 129.5q0 88 -50 125.5t-149 37.5h-106v-331h104q96 0 148.5 38.5zM310 860q10 -10 10 -25t-10 -25t-26 -10t-26 10t-10 25t10 25t26 10t26 -10z
" />
    <glyph glyph-name="uni01A4" unicode="&#x1a4;" horiz-adv-x="618" 
d="M505 634q64 -50 64 -153q0 -109 -67.5 -159t-184.5 -50h-103v-272h-47v644h-29q-39 0 -57.5 -18.5t-18.5 -49.5q0 -21 6 -37.5t17 -37.5l-34 -19q-17 26 -25.5 46.5t-8.5 48.5q0 48 33 77.5t93 29.5h24h153q121 0 185 -50zM466.5 350.5q52.5 38.5 52.5 129.5
q0 87 -50 125t-149 38h-106v-331h104q96 0 148.5 38.5z" />
    <glyph glyph-name="Thorn" unicode="&#xde;" horiz-adv-x="566" 
d="M517 356q0 -113 -67 -164.5t-185 -51.5h-103v-140h-47v684h47v-124h106q249 0 249 -204zM414.5 219.5q52.5 39.5 52.5 135.5q0 88 -50 126t-149 38h-106v-339h104q96 0 148.5 39.5z" />
    <glyph glyph-name="Q" unicode="Q" horiz-adv-x="678" 
d="M643 -49l-32 -40q-53 46 -112 63t-154 17q-82 0 -144 40.5t-96.5 119t-34.5 189.5t34.5 191t97 121.5t143.5 41.5q83 0 145 -40.5t96.5 -120t34.5 -192.5q0 -139 -48.5 -217.5t-130.5 -105.5q126 -2 201 -67zM181 110q61 -79 164 -79q107 0 166.5 78.5t59.5 231.5
q0 154 -60 233t-166 79q-104 0 -164.5 -79.5t-60.5 -233.5q0 -151 61 -230z" />
    <glyph glyph-name="uni024A" unicode="&#x24a;" horiz-adv-x="656" 
d="M707 -170q-43 -33 -97 -33q-53 0 -84.5 32.5t-31.5 94.5v140q-64 -75 -171 -75q-72 0 -129.5 39t-90.5 115t-33 184q0 116 33.5 199t91.5 125.5t130 42.5q105 0 171 -73l4 63h42v-760q0 -86 69 -86q24 0 41.5 6t34.5 18zM494 110v464q-61 79 -166 79q-60 0 -107 -36
t-74 -109t-27 -181q0 -98 27 -164.5t73.5 -99t105.5 -32.5q104 0 168 79z" />
    <glyph glyph-name="R" unicode="R" horiz-adv-x="584" 
d="M310 313h-148v-313h-47v684h161q237 0 237 -183q0 -75 -39.5 -118.5t-114.5 -61.5l189 -321h-58zM283 353q180 0 180 148q0 72 -44.5 107t-145.5 35h-111v-290h121z" />
    <glyph glyph-name="Racute" unicode="&#x154;" horiz-adv-x="584" 
d="M310 313h-148v-313h-47v684h161q237 0 237 -183q0 -75 -39.5 -118.5t-114.5 -61.5l189 -321h-58zM283 353q180 0 180 148q0 72 -44.5 107t-145.5 35h-111v-290h121zM394 836l-192 -77l-13 29l183 92z" />
    <glyph glyph-name="Rcaron" unicode="&#x158;" horiz-adv-x="584" 
d="M310 313h-148v-313h-47v684h161q237 0 237 -183q0 -75 -39.5 -118.5t-114.5 -61.5l189 -321h-58zM283 353q180 0 180 148q0 72 -44.5 107t-145.5 35h-111v-290h121zM433 855l-127 -98h-27l-128 98l21 25l121 -79l119 79z" />
    <glyph glyph-name="Rcommaaccent" unicode="&#x156;" horiz-adv-x="584" 
d="M310 313h-148v-313h-47v684h161q237 0 237 -183q0 -75 -39.5 -118.5t-114.5 -61.5l189 -321h-58zM283 353q180 0 180 148q0 72 -44.5 107t-145.5 35h-111v-290h121zM332.5 -98q10.5 -11 10.5 -27q0 -11 -4 -22.5t-16 -39.5l-40 -86h-29l33 114q-22 11 -22 34
q0 16 11.5 27t27.5 11q18 0 28.5 -11z" />
    <glyph glyph-name="uni0210" unicode="&#x210;" horiz-adv-x="584" 
d="M310 313h-148v-313h-47v684h161q237 0 237 -183q0 -75 -39.5 -118.5t-114.5 -61.5l189 -321h-58zM283 353q180 0 180 148q0 72 -44.5 107t-145.5 35h-111v-290h121zM262 822l-31 -15l-88 136l43 23zM376 826l-31 -15l-80 132l43 22z" />
    <glyph glyph-name="uni1E5A" unicode="&#x1e5a;" horiz-adv-x="584" 
d="M310 313h-148v-313h-47v684h161q237 0 237 -183q0 -75 -39.5 -118.5t-114.5 -61.5l189 -321h-58zM283 353q180 0 180 148q0 72 -44.5 107t-145.5 35h-111v-290h121zM279.5 -150q-9.5 10 -9.5 25t9.5 25t26.5 10q16 0 26 -10t10 -25t-10 -25t-26 -10q-17 0 -26.5 10z" />
    <glyph glyph-name="uni0212" unicode="&#x212;" horiz-adv-x="584" 
d="M310 313h-148v-313h-47v684h161q237 0 237 -183q0 -75 -39.5 -118.5t-114.5 -61.5l189 -321h-58zM283 353q180 0 180 148q0 72 -44.5 107t-145.5 35h-111v-290h121zM374.5 870q33.5 -28 40.5 -74l-32 -7q-10 34 -33 52t-58 18t-58 -18t-33 -52l-32 7q7 46 40.5 74
t82.5 28t82.5 -28z" />
    <glyph glyph-name="uni024C" unicode="&#x24c;" horiz-adv-x="584" 
d="M310 313h-14h-134v-313h-47v313h-91v40h91v331h161q236 0 236 -183q0 -75 -39 -118t-114 -62l189 -321h-58zM463 501q0 72 -44.5 107t-146.5 35h-110v-290h121q180 0 180 148z" />
    <glyph glyph-name="uni2C64" unicode="&#x2c64;" horiz-adv-x="584" 
d="M162 313v-312h1v-77q0 -86 69 -86q24 0 41.5 6t34.5 18l20 -32q-43 -33 -97 -33q-53 0 -84.5 32.5t-31.5 94.5v760h161q237 0 237 -183q0 -75 -39.5 -118.5t-114.5 -61.5l189 -321h-58l-180 313h-148zM162 643v-290h121q180 0 180 148q0 72 -44.5 107t-145.5 35h-111z
" />
    <glyph glyph-name="uni2C64.ss01" horiz-adv-x="404" 
d="M181 -141.5q19 -20.5 51 -20.5q24 0 41.5 6t34.5 18l20 -32q-43 -33 -97 -33q-53 0 -84.5 32.5t-31.5 94.5v760h41l3 -116q47 126 171 126q39 0 66 -9l-11 -44q-21 7 -57 7q-60 0 -101.5 -39.5t-64.5 -123.5v-561q0 -45 19 -65.5z" />
    <glyph glyph-name="S" unicode="S" horiz-adv-x="537" 
d="M371.5 675.5q43.5 -18.5 85.5 -55.5l-28 -31q-39 34 -76.5 49t-85.5 15q-67 0 -107.5 -33.5t-40.5 -88.5q0 -38 15.5 -63t50 -44t97.5 -38q69 -21 111 -45t63.5 -61.5t21.5 -94.5t-27.5 -102t-77.5 -69.5t-115 -24.5q-66 0 -118 22t-96 63l28 31q41 -37 84 -55.5
t101 -18.5q77 0 125 41t48 112q0 44 -16 72.5t-51.5 49t-99.5 40.5q-105 32 -148.5 73t-43.5 111q0 47 24.5 84t69 58.5t101.5 21.5q62 0 105.5 -18.5z" />
    <glyph glyph-name="Sacute" unicode="&#x15a;" horiz-adv-x="537" 
d="M371.5 675.5q43.5 -18.5 85.5 -55.5l-28 -31q-39 34 -76.5 49t-85.5 15q-67 0 -107.5 -33.5t-40.5 -88.5q0 -38 15.5 -63t50 -44t97.5 -38q69 -21 111 -45t63.5 -61.5t21.5 -94.5t-27.5 -102t-77.5 -69.5t-115 -24.5q-66 0 -118 22t-96 63l28 31q41 -37 84 -55.5
t101 -18.5q77 0 125 41t48 112q0 44 -16 72.5t-51.5 49t-99.5 40.5q-105 32 -148.5 73t-43.5 111q0 47 24.5 84t69 58.5t101.5 21.5q62 0 105.5 -18.5zM372 836l-192 -77l-13 29l183 92z" />
    <glyph glyph-name="Sacute.loclPLK" horiz-adv-x="537" 
d="M371.5 675.5q43.5 -18.5 85.5 -55.5l-28 -31q-39 34 -76.5 49t-85.5 15q-67 0 -107.5 -33.5t-40.5 -88.5q0 -38 15.5 -63t50 -44t97.5 -38q69 -21 111 -45t63.5 -61.5t21.5 -94.5t-27.5 -102t-77.5 -69.5t-115 -24.5q-66 0 -118 22t-96 63l28 31q41 -37 84 -55.5
t101 -18.5q77 0 125 41t48 112q0 44 -16 72.5t-51.5 49t-99.5 40.5q-105 32 -148.5 73t-43.5 111q0 47 24.5 84t69 58.5t101.5 21.5q62 0 105.5 -18.5zM375 876l-116 -145l-25 16l101 155z" />
    <glyph glyph-name="uniA78B" unicode="&#xa78b;" horiz-adv-x="201" 
d="M75 684h51l-6 -328h-39z" />
    <glyph glyph-name="Scaron" unicode="&#x160;" horiz-adv-x="537" 
d="M371.5 675.5q43.5 -18.5 85.5 -55.5l-28 -31q-39 34 -76.5 49t-85.5 15q-67 0 -107.5 -33.5t-40.5 -88.5q0 -38 15.5 -63t50 -44t97.5 -38q69 -21 111 -45t63.5 -61.5t21.5 -94.5t-27.5 -102t-77.5 -69.5t-115 -24.5q-66 0 -118 22t-96 63l28 31q41 -37 84 -55.5
t101 -18.5q77 0 125 41t48 112q0 44 -16 72.5t-51.5 49t-99.5 40.5q-105 32 -148.5 73t-43.5 111q0 47 24.5 84t69 58.5t101.5 21.5q62 0 105.5 -18.5zM411 855l-127 -98h-27l-128 98l21 25l121 -79l119 79z" />
    <glyph glyph-name="Scedilla" unicode="&#x15e;" horiz-adv-x="537" 
d="M422 48q-56 -54 -148 -58v-57q92 -7 92 -73q0 -38 -28.5 -60t-70.5 -22q-43 0 -76 20l16 30q28 -15 59 -15q25 0 41 12t16 35t-21 34t-68 11l7 85q-112 5 -197 84l28 31q41 -37 84 -55.5t101 -18.5q77 0 125 41t48 112q0 44 -16 72.5t-51.5 49t-99.5 40.5
q-105 32 -148.5 73t-43.5 111q0 47 24.5 84t69 58.5t101.5 21.5q62 0 105.5 -18.5t85.5 -55.5l-28 -31q-39 34 -76.5 49t-85.5 15q-67 0 -107.5 -33.5t-40.5 -88.5q0 -38 15.5 -63t50 -44t97.5 -38q69 -21 111 -45t63.5 -61.5t21.5 -94.5q0 -83 -56 -137z" />
    <glyph glyph-name="Scircumflex" unicode="&#x15c;" horiz-adv-x="537" 
d="M371.5 675.5q43.5 -18.5 85.5 -55.5l-28 -31q-39 34 -76.5 49t-85.5 15q-67 0 -107.5 -33.5t-40.5 -88.5q0 -38 15.5 -63t50 -44t97.5 -38q69 -21 111 -45t63.5 -61.5t21.5 -94.5t-27.5 -102t-77.5 -69.5t-115 -24.5q-66 0 -118 22t-96 63l28 31q41 -37 84 -55.5
t101 -18.5q77 0 125 41t48 112q0 44 -16 72.5t-51.5 49t-99.5 40.5q-105 32 -148.5 73t-43.5 111q0 47 24.5 84t69 58.5t101.5 21.5q62 0 105.5 -18.5zM270 843l-121 -80l-21 25l128 99h27l127 -99l-21 -25z" />
    <glyph glyph-name="Scommaaccent" unicode="&#x218;" horiz-adv-x="537" 
d="M371.5 675.5q43.5 -18.5 85.5 -55.5l-28 -31q-39 34 -76.5 49t-85.5 15q-67 0 -107.5 -33.5t-40.5 -88.5q0 -38 15.5 -63t50 -44t97.5 -38q69 -21 111 -45t63.5 -61.5t21.5 -94.5t-27.5 -102t-77.5 -69.5t-115 -24.5q-66 0 -118 22t-96 63l28 31q41 -37 84 -55.5
t101 -18.5q77 0 125 41t48 112q0 44 -16 72.5t-51.5 49t-99.5 40.5q-105 32 -148.5 73t-43.5 111q0 47 24.5 84t69 58.5t101.5 21.5q62 0 105.5 -18.5zM290.5 -98q10.5 -11 10.5 -27q0 -11 -4 -22.5t-16 -39.5l-40 -86h-29l33 114q-22 11 -22 34q0 16 11.5 27t27.5 11
q18 0 28.5 -11z" />
    <glyph glyph-name="uni1E60" unicode="&#x1e60;" horiz-adv-x="537" 
d="M371.5 675.5q43.5 -18.5 85.5 -55.5l-28 -31q-39 34 -76.5 49t-85.5 15q-67 0 -107.5 -33.5t-40.5 -88.5q0 -38 15.5 -63t50 -44t97.5 -38q69 -21 111 -45t63.5 -61.5t21.5 -94.5t-27.5 -102t-77.5 -69.5t-115 -24.5q-66 0 -118 22t-96 63l28 31q41 -37 84 -55.5
t101 -18.5q77 0 125 41t48 112q0 44 -16 72.5t-51.5 49t-99.5 40.5q-105 32 -148.5 73t-43.5 111q0 47 24.5 84t69 58.5t101.5 21.5q62 0 105.5 -18.5zM296 860q10 -10 10 -25t-10 -25t-26 -10t-26 10t-10 25t10 25t26 10t26 -10z" />
    <glyph glyph-name="uni1E62" unicode="&#x1e62;" horiz-adv-x="537" 
d="M371.5 675.5q43.5 -18.5 85.5 -55.5l-28 -31q-39 34 -76.5 49t-85.5 15q-67 0 -107.5 -33.5t-40.5 -88.5q0 -38 15.5 -63t50 -44t97.5 -38q69 -21 111 -45t63.5 -61.5t21.5 -94.5t-27.5 -102t-77.5 -69.5t-115 -24.5q-66 0 -118 22t-96 63l28 31q41 -37 84 -55.5
t101 -18.5q77 0 125 41t48 112q0 44 -16 72.5t-51.5 49t-99.5 40.5q-105 32 -148.5 73t-43.5 111q0 47 24.5 84t69 58.5t101.5 21.5q62 0 105.5 -18.5zM236.5 -150q-9.5 10 -9.5 25t9.5 25t26.5 10q16 0 26 -10t10 -25t-10 -25t-26 -10q-17 0 -26.5 10z" />
    <glyph glyph-name="uni1E9E" unicode="&#x1e9e;" horiz-adv-x="646" 
d="M549 628v-34l-195 -210q236 -26 236 -200q0 -90 -54 -142.5t-147 -52.5q-70 0 -114 23l16 35q46 -16 96 -16q72 0 112.5 39t40.5 113q0 80 -57 119t-177 47v41l197 216q-45 22 -88 34.5t-93 12.5q-77 0 -118.5 -40t-41.5 -123v-490h-47v493q0 96 54.5 148.5t152.5 52.5
q112 0 227 -66z" />
    <glyph glyph-name="uni018F" unicode="&#x18f;" horiz-adv-x="648" 
d="M510 608q68 -86 68 -265q0 -175 -70.5 -264.5t-190.5 -89.5q-121 0 -189 87.5t-68 254.5q0 24 1 38h466q-5 148 -59 216t-151 68q-53 0 -98 -17t-90 -54l-26 31q49 42 100 61.5t115 19.5q124 0 192 -86zM468.5 103.5q56.5 72.5 59.5 225.5h-419q0 -150 55 -224t154 -74
q94 0 150.5 72.5z" />
    <glyph glyph-name="T" unicode="T" horiz-adv-x="487" 
d="M471 641h-204v-641h-47v641h-205v43h462z" />
    <glyph glyph-name="Tbar" unicode="&#x166;" horiz-adv-x="494" 
d="M267 640v-257h125v-39h-125v-345h-47v345h-124v39h124v257h-205v43h462l-6 -43h-204z" />
    <glyph glyph-name="Tcaron" unicode="&#x164;" horiz-adv-x="487" 
d="M471 641h-204v-641h-47v641h-205v43h462zM385 855l-127 -98h-27l-128 98l21 25l121 -79l119 79z" />
    <glyph glyph-name="uni0162" unicode="&#x162;" horiz-adv-x="487" 
d="M267 641v-625h1v-83q46 -4 69 -22.5t23 -50.5q0 -38 -29 -60t-71 -22t-75 20l16 30q28 -15 58 -15q25 0 41.5 12t16.5 35t-21 34t-68 11l8 95h-16v641h-205v43h462l-6 -43h-204z" />
    <glyph glyph-name="uni1E70" unicode="&#x1e70;" horiz-adv-x="487" 
d="M471 641h-204v-641h-47v641h-205v43h462zM103 -174l127 104h27l128 -104l-21 -25l-120 85l-120 -85z" />
    <glyph glyph-name="uni021A" unicode="&#x21a;" horiz-adv-x="487" 
d="M471 641h-204v-641h-47v641h-205v43h462zM271.5 -98q10.5 -11 10.5 -27q0 -11 -4 -22.5t-16 -39.5l-40 -86h-29l33 114q-22 11 -22 34q0 16 11.5 27t27.5 11q18 0 28.5 -11z" />
    <glyph glyph-name="uni023E" unicode="&#x23e;" horiz-adv-x="487" 
d="M357 641l-90 -286v-355h-47v204l-86 -274l-28 9l114 364v338h-205v43h325l18 60l28 -9l-16 -51h107l-6 -43h-114zM326 641h-59v-188z" />
    <glyph glyph-name="uni1E6A" unicode="&#x1e6a;" horiz-adv-x="487" 
d="M471 641h-204v-641h-47v641h-205v43h462zM270 860q10 -10 10 -25t-10 -25t-26 -10t-26 10t-10 25t10 25t26 10t26 -10z" />
    <glyph glyph-name="uni1E6C" unicode="&#x1e6c;" horiz-adv-x="487" 
d="M471 641h-204v-641h-47v641h-205v43h462zM217.5 -150q-9.5 10 -9.5 25t9.5 25t26.5 10q16 0 26 -10t10 -25t-10 -25t-26 -10q-17 0 -26.5 10z" />
    <glyph glyph-name="uni01AC" unicode="&#x1ac;" horiz-adv-x="512" 
d="M496 641h-204v-641h-47v641h-106q-39 0 -57.5 -18t-18.5 -48q0 -21 5.5 -37t17.5 -37l-36 -19q-16 25 -24.5 45.5t-8.5 48.5q0 49 33.5 78.5t95.5 29.5h356z" />
    <glyph glyph-name="uni1E6E" unicode="&#x1e6e;" horiz-adv-x="487" 
d="M471 641h-204v-641h-47v641h-205v43h462zM129 -154v40h229v-40h-229z" />
    <glyph glyph-name="uni01BC" unicode="&#x1bc;" horiz-adv-x="490" 
d="M409 644h-283v-249q54 34 122 34q89 0 139.5 -55.5t50.5 -154.5q0 -103 -57.5 -166.5t-155.5 -63.5q-59 0 -105 21t-83 62l31 28q31 -36 68.5 -53t88.5 -17q77 0 121 50.5t44 139.5q0 85 -40 127.5t-109 42.5q-38 0 -65 -8t-58 -26h-37v328h336z" />
    <glyph glyph-name="uni0184" unicode="&#x184;" horiz-adv-x="557" 
d="M454.5 367.5q62.5 -50.5 62.5 -151.5q0 -110 -64.5 -163t-175.5 -53h-162v558l-47 32q39 43 53 94h41v-266h116q114 0 176.5 -50.5zM467 216q0 162 -186 162h-119v-337h123q182 0 182 175z" />
    <glyph glyph-name="uni01A7" unicode="&#x1a7;" horiz-adv-x="528" 
d="M416 650q50 -44 50 -115q0 -48 -19.5 -81.5t-60.5 -58t-112 -47.5q-64 -21 -99.5 -43t-51 -52t-15.5 -75q0 -69 45.5 -108t116.5 -39q58 0 102 18.5t84 54.5l29 -30q-44 -41 -96.5 -63t-119.5 -22q-60 0 -108 24t-75 67t-27 99q0 81 47 127t149 79q63 20 97.5 39.5
t49.5 45t15 65.5q0 55 -36 86.5t-101 31.5q-52 0 -91 -14.5t-82 -48.5l-27 30q46 38 92 56t109 18q85 0 135 -44z" />
    <glyph glyph-name="uni01AE" unicode="&#x1ae;" horiz-adv-x="487" 
d="M267 641v-640h1v-77q0 -86 69 -86q24 0 41.5 6t34.5 18l20 -32q-43 -33 -97 -33q-53 0 -84.5 32.5t-31.5 94.5v717h-205v43h462l-6 -43h-204z" />
    <glyph glyph-name="U" unicode="U" horiz-adv-x="648" 
d="M543 211q0 -101 -55.5 -161.5t-163.5 -60.5t-163.5 60.5t-55.5 161.5v473h47v-469q0 -87 42.5 -135t129.5 -48t129 48.5t42 134.5v469h48v-473z" />
    <glyph glyph-name="Uacute" unicode="&#xda;" horiz-adv-x="648" 
d="M543 211q0 -101 -55.5 -161.5t-163.5 -60.5t-163.5 60.5t-55.5 161.5v473h47v-469q0 -87 42.5 -135t129.5 -48t129 48.5t42 134.5v469h48v-473zM426 836l-192 -77l-13 29l183 92z" />
    <glyph glyph-name="uni0244" unicode="&#x244;" horiz-adv-x="662" 
d="M614 515h-64v-304q0 -101 -55.5 -161.5t-163.5 -60.5t-163.5 60.5t-55.5 161.5v304h-64v36h64v133h48v-133h343v133h47v-133h64v-36zM503 515h-343v-300q0 -87 42 -135t129 -48q88 0 130 48.5t42 134.5v300z" />
    <glyph glyph-name="Ubreve" unicode="&#x16c;" horiz-adv-x="648" 
d="M543 211q0 -101 -55.5 -161.5t-163.5 -60.5t-163.5 60.5t-55.5 161.5v473h47v-469q0 -87 42.5 -135t129.5 -48t129 48.5t42 134.5v469h48v-473zM242 793.5q-34 26.5 -41 65.5l32 8q10 -28 33.5 -44.5t57.5 -16.5t57.5 16.5t33.5 44.5l32 -8q-7 -39 -41 -65.5t-82 -26.5
t-82 26.5z" />
    <glyph glyph-name="uni01D3" unicode="&#x1d3;" horiz-adv-x="648" 
d="M543 211q0 -101 -55.5 -161.5t-163.5 -60.5t-163.5 60.5t-55.5 161.5v473h47v-469q0 -87 42.5 -135t129.5 -48t129 48.5t42 134.5v469h48v-473zM465 855l-127 -98h-27l-128 98l21 25l121 -79l119 79z" />
    <glyph glyph-name="Ucircumflex" unicode="&#xdb;" horiz-adv-x="648" 
d="M543 211q0 -101 -55.5 -161.5t-163.5 -60.5t-163.5 60.5t-55.5 161.5v473h47v-469q0 -87 42.5 -135t129.5 -48t129 48.5t42 134.5v469h48v-473zM325 843l-121 -80l-21 25l128 99h27l127 -99l-21 -25z" />
    <glyph glyph-name="uni0214" unicode="&#x214;" horiz-adv-x="648" 
d="M543 211q0 -101 -55.5 -161.5t-163.5 -60.5t-163.5 60.5t-55.5 161.5v473h47v-469q0 -87 42.5 -135t129.5 -48t129 48.5t42 134.5v469h48v-473zM294 822l-31 -15l-88 136l43 23zM408 826l-31 -15l-80 132l43 22z" />
    <glyph glyph-name="Udieresis" unicode="&#xdc;" horiz-adv-x="648" 
d="M543 211q0 -101 -55.5 -161.5t-163.5 -60.5t-163.5 60.5t-55.5 161.5v473h47v-469q0 -87 42.5 -135t129.5 -48t129 48.5t42 134.5v469h48v-473zM257.5 848.5q9.5 -9.5 9.5 -23.5t-9.5 -23.5t-24.5 -9.5t-24.5 9.5t-9.5 23.5t9.5 23.5t24.5 9.5t24.5 -9.5zM438.5 848.5
q9.5 -9.5 9.5 -23.5t-9.5 -23.5t-23.5 -9.5q-15 0 -24.5 9.5t-9.5 23.5t9.5 23.5t24.5 9.5q14 0 23.5 -9.5z" />
    <glyph glyph-name="uni01D7" unicode="&#x1d7;" horiz-adv-x="648" 
d="M433 925l-115 -118l-22 20l105 128zM257.5 800q9.5 -10 9.5 -24t-9.5 -23.5t-24.5 -9.5t-24.5 9.5t-9.5 23.5t9.5 24t24.5 10t24.5 -10zM438.5 800q9.5 -10 9.5 -24t-9.5 -23.5t-23.5 -9.5q-15 0 -24.5 9.5t-9.5 23.5t9.5 24t24.5 10q14 0 23.5 -10zM543 211
q0 -101 -55.5 -161.5t-163.5 -60.5t-163.5 60.5t-55.5 161.5v473h47v-469q0 -87 42.5 -135t129.5 -48t129 48.5t42 134.5v469h48v-473z" />
    <glyph glyph-name="uni01D9" unicode="&#x1d9;" horiz-adv-x="648" 
d="M461 915l-127 -98h-27l-128 98l21 25l121 -79l119 79zM256.5 800q9.5 -10 9.5 -24t-9.5 -23.5t-24.5 -9.5q-14 0 -23.5 9.5t-9.5 23.5t9.5 24t23.5 10q15 0 24.5 -10zM438.5 800q9.5 -10 9.5 -24t-9.5 -23.5t-23.5 -9.5q-15 0 -24.5 9.5t-9.5 23.5q0 15 9.5 24.5
t24.5 9.5q14 0 23.5 -10zM543 211q0 -101 -55.5 -161.5t-163.5 -60.5t-163.5 60.5t-55.5 161.5v473h47v-469q0 -87 42.5 -135t129.5 -48t129 48.5t42 134.5v469h48v-473z" />
    <glyph glyph-name="uni01DB" unicode="&#x1db;" horiz-adv-x="648" 
d="M357 827l-22 -20l-114 118l32 30zM257.5 800q9.5 -10 9.5 -24t-9.5 -23.5t-24.5 -9.5t-24.5 9.5t-9.5 23.5t9.5 24t24.5 10t24.5 -10zM438.5 800q9.5 -10 9.5 -24t-9.5 -23.5t-23.5 -9.5q-15 0 -24.5 9.5t-9.5 23.5t9.5 24t24.5 10q14 0 23.5 -10zM543 211
q0 -101 -55.5 -161.5t-163.5 -60.5t-163.5 60.5t-55.5 161.5v473h47v-469q0 -87 42.5 -135t129.5 -48t129 48.5t42 134.5v469h48v-473z" />
    <glyph glyph-name="uni01D5" unicode="&#x1d5;" horiz-adv-x="648" 
d="M211 869v39h229v-39h-229zM257.5 799.5q9.5 -9.5 9.5 -23.5t-9.5 -23.5t-24.5 -9.5t-24.5 9.5t-9.5 23.5t9.5 23.5t24.5 9.5t24.5 -9.5zM438.5 799.5q9.5 -9.5 9.5 -23.5t-9.5 -23.5t-23.5 -9.5q-15 0 -24.5 9.5t-9.5 23.5t9.5 23.5t24.5 9.5q14 0 23.5 -9.5zM543 211
q0 -101 -55.5 -161.5t-163.5 -60.5t-163.5 60.5t-55.5 161.5v473h47v-469q0 -87 42.5 -135t129.5 -48t129 48.5t42 134.5v469h48v-473z" />
    <glyph glyph-name="uni1EE4" unicode="&#x1ee4;" horiz-adv-x="648" 
d="M543 211q0 -101 -55.5 -161.5t-163.5 -60.5t-163.5 60.5t-55.5 161.5v473h47v-469q0 -87 42.5 -135t129.5 -48t129 48.5t42 134.5v469h48v-473zM297.5 -150q-9.5 10 -9.5 25t9.5 25t26.5 10q16 0 26 -10t10 -25t-10 -25t-26 -10q-17 0 -26.5 10z" />
    <glyph glyph-name="Ugrave" unicode="&#xd9;" horiz-adv-x="648" 
d="M543 211q0 -101 -55.5 -161.5t-163.5 -60.5t-163.5 60.5t-55.5 161.5v473h47v-469q0 -87 42.5 -135t129.5 -48t129 48.5t42 134.5v469h48v-473zM424 788l-13 -29l-192 77l22 44z" />
    <glyph glyph-name="uni1EE6" unicode="&#x1ee6;" horiz-adv-x="648" 
d="M543 211q0 -101 -55.5 -161.5t-163.5 -60.5t-163.5 60.5t-55.5 161.5v473h47v-469q0 -87 42.5 -135t129.5 -48t129 48.5t42 134.5v469h48v-473zM301 847q33 2 51 12.5t18 35.5q0 20 -12.5 31t-35.5 11q-30 0 -58 -14l-14 30q37 20 77 20t63.5 -20.5t23.5 -54.5
q0 -33 -18.5 -51.5t-54.5 -22.5v-46h-40v69z" />
    <glyph glyph-name="Uhorn" unicode="&#x1af;" horiz-adv-x="648" 
d="M543 211q0 -101 -55.5 -161.5t-163.5 -60.5t-163.5 60.5t-55.5 161.5v473h47v-469q0 -87 42.5 -135t129.5 -48t129 48.5t42 134.5v469h48v-473zM533 626q34 4 49 18.5t15 41.5q0 37 -14 72l36 11q18 -34 18 -82q0 -41 -25 -64.5t-69 -23.5z" />
    <glyph glyph-name="uni1EE8" unicode="&#x1ee8;" horiz-adv-x="648" 
d="M543 211q0 -101 -55.5 -161.5t-163.5 -60.5t-163.5 60.5t-55.5 161.5v473h47v-469q0 -87 42.5 -135t129.5 -48t129 48.5t42 134.5v469h48v-473zM533 626q34 4 49 18.5t15 41.5q0 37 -14 72l36 11q18 -34 18 -82q0 -41 -25 -64.5t-69 -23.5zM426 836l-192 -77l-13 29
l183 92z" />
    <glyph glyph-name="uni1EF0" unicode="&#x1ef0;" horiz-adv-x="648" 
d="M543 211q0 -101 -55.5 -161.5t-163.5 -60.5t-163.5 60.5t-55.5 161.5v473h47v-469q0 -87 42.5 -135t129.5 -48t129 48.5t42 134.5v469h48v-473zM533 626q34 4 49 18.5t15 41.5q0 37 -14 72l36 11q18 -34 18 -82q0 -41 -25 -64.5t-69 -23.5zM297.5 -150q-9.5 10 -9.5 25
t9.5 25t26.5 10q16 0 26 -10t10 -25t-10 -25t-26 -10q-17 0 -26.5 10z" />
    <glyph glyph-name="uni1EEA" unicode="&#x1eea;" horiz-adv-x="648" 
d="M543 211q0 -101 -55.5 -161.5t-163.5 -60.5t-163.5 60.5t-55.5 161.5v473h47v-469q0 -87 42.5 -135t129.5 -48t129 48.5t42 134.5v469h48v-473zM533 626q34 4 49 18.5t15 41.5q0 37 -14 72l36 11q18 -34 18 -82q0 -41 -25 -64.5t-69 -23.5zM424 788l-13 -29l-192 77
l22 44z" />
    <glyph glyph-name="uni1EEC" unicode="&#x1eec;" horiz-adv-x="648" 
d="M543 211q0 -101 -55.5 -161.5t-163.5 -60.5t-163.5 60.5t-55.5 161.5v473h47v-469q0 -87 42.5 -135t129.5 -48t129 48.5t42 134.5v469h48v-473zM533 626q34 4 49 18.5t15 41.5q0 37 -14 72l36 11q18 -34 18 -82q0 -41 -25 -64.5t-69 -23.5zM301 847q33 2 51 12.5t18 35.5
q0 20 -12.5 31t-35.5 11q-30 0 -58 -14l-14 30q37 20 77 20t63.5 -20.5t23.5 -54.5q0 -33 -18.5 -51.5t-54.5 -22.5v-46h-40v69z" />
    <glyph glyph-name="uni1EEE" unicode="&#x1eee;" horiz-adv-x="648" 
d="M543 211q0 -101 -55.5 -161.5t-163.5 -60.5t-163.5 60.5t-55.5 161.5v473h47v-469q0 -87 42.5 -135t129.5 -48t129 48.5t42 134.5v469h48v-473zM533 626q34 4 49 18.5t15 41.5q0 37 -14 72l36 11q18 -34 18 -82q0 -41 -25 -64.5t-69 -23.5zM349 802.5q-16 6.5 -36 18.5
q-30 19 -47 19t-29.5 -8.5t-27.5 -28.5l-29 15q37 60 86 60q15 0 28 -5.5t33 -17.5q18 -10 30.5 -15.5t25.5 -5.5q16 0 28.5 9.5t28.5 33.5l29 -15q-32 -66 -86 -66q-18 0 -34 6.5z" />
    <glyph glyph-name="Uhungarumlaut" unicode="&#x170;" horiz-adv-x="648" 
d="M543 211q0 -101 -55.5 -161.5t-163.5 -60.5t-163.5 60.5t-55.5 161.5v473h47v-469q0 -87 42.5 -135t129.5 -48t129 48.5t42 134.5v469h48v-473zM473 907l-88 -136l-31 15l76 144zM352 907l-81 -132l-31 15l69 139z" />
    <glyph glyph-name="uni0216" unicode="&#x216;" horiz-adv-x="648" 
d="M543 211q0 -101 -55.5 -161.5t-163.5 -60.5t-163.5 60.5t-55.5 161.5v473h47v-469q0 -87 42.5 -135t129.5 -48t129 48.5t42 134.5v469h48v-473zM406.5 870q33.5 -28 40.5 -74l-32 -7q-10 34 -33 52t-58 18t-58 -18t-33 -52l-32 7q7 46 40.5 74t82.5 28t82.5 -28z" />
    <glyph glyph-name="Umacron" unicode="&#x16a;" horiz-adv-x="648" 
d="M543 211q0 -101 -55.5 -161.5t-163.5 -60.5t-163.5 60.5t-55.5 161.5v473h47v-469q0 -87 42.5 -135t129.5 -48t129 48.5t42 134.5v469h48v-473zM210 805v39h229v-39h-229z" />
    <glyph glyph-name="Uogonek" unicode="&#x172;" horiz-adv-x="648" 
d="M543 684v-473q0 -80 -35.5 -136t-105.5 -76q-65 -29 -93 -55t-28 -63q0 -25 17 -39t50 -14q23 0 56 6l-5 -40q-35 -7 -56 -7q-52 0 -79.5 25t-27.5 64q0 70 92 114q-1 -1 -4 -1q-108 0 -163.5 60.5t-55.5 161.5v473h47v-469q0 -87 42.5 -135t129.5 -48t129 48.5t42 134.5
v469h48z" />
    <glyph glyph-name="uni01B1" unicode="&#x1b1;" horiz-adv-x="691" 
d="M200 29q-62 40 -96 114.5t-34 176.5q0 120 38 195t101 127h-117v42h178v-41q-70 -47 -110 -124.5t-40 -198.5q0 -139 60.5 -214t164.5 -75q103 0 164.5 75.5t61.5 213.5q0 121 -40 198.5t-110 124.5v41h178v-42h-117q64 -50 101.5 -124.5t37.5 -197.5
q0 -101 -34.5 -175.5t-97 -115t-144.5 -40.5q-83 0 -145 40z" />
    <glyph glyph-name="Uring" unicode="&#x16e;" horiz-adv-x="648" 
d="M543 211q0 -101 -55.5 -161.5t-163.5 -60.5t-163.5 60.5t-55.5 161.5v473h47v-469q0 -87 42.5 -135t129.5 -48t129 48.5t42 134.5v469h48v-473zM391 916.5q26 -24.5 26 -64.5t-26 -65t-67 -25t-67 25t-26 65t26 64.5t67 24.5t67 -24.5zM282.5 895.5
q-14.5 -15.5 -14.5 -43.5t14.5 -43.5t41.5 -15.5t41.5 15.5t14.5 43.5t-14.5 43.5t-41.5 15.5t-41.5 -15.5z" />
    <glyph glyph-name="Utilde" unicode="&#x168;" horiz-adv-x="648" 
d="M543 211q0 -101 -55.5 -161.5t-163.5 -60.5t-163.5 60.5t-55.5 161.5v473h47v-469q0 -87 42.5 -135t129.5 -48t129 48.5t42 134.5v469h48v-473zM349 802.5q-16 6.5 -36 18.5q-30 19 -47 19t-29.5 -8.5t-27.5 -28.5l-29 15q37 60 86 60q15 0 28 -5.5t33 -17.5
q18 -10 30.5 -15.5t25.5 -5.5q16 0 28.5 9.5t28.5 33.5l29 -15q-32 -66 -86 -66q-18 0 -34 6.5z" />
    <glyph glyph-name="uni1E78" unicode="&#x1e78;" horiz-adv-x="648" 
d="M427 949l-192 -77l-13 29l183 92zM349 763.5q-16 6.5 -36 18.5q-30 19 -47 19t-29.5 -8.5t-27.5 -28.5l-29 15q37 60 86 60q15 0 28 -5.5t33 -17.5q18 -10 30.5 -15.5t25.5 -5.5q16 0 28.5 9.5t28.5 33.5l29 -15q-32 -66 -86 -66q-18 0 -34 6.5zM543 211
q0 -101 -55.5 -161.5t-163.5 -60.5t-163.5 60.5t-55.5 161.5v473h47v-469q0 -87 42.5 -135t129.5 -48t129 48.5t42 134.5v469h48v-473z" />
    <glyph glyph-name="V" unicode="V" horiz-adv-x="543" 
d="M299 0h-55l-224 684h51l201 -636l201 636h50z" />
    <glyph glyph-name="uni01B2" unicode="&#x1b2;" horiz-adv-x="637" 
d="M519 669q24 -25 24 -76v-302q0 -96 -31 -164t-86.5 -103t-126.5 -35q-89 0 -141.5 54t-52.5 144v497h47v-494q0 -76 39.5 -117t107.5 -41q89 0 142.5 67.5t53.5 195.5v297q0 32 -11 47t-36 15q-24 0 -43 -9l-15 33q28 16 62 16q43 0 67 -25z" />
    <glyph glyph-name="uni0245" unicode="&#x245;" horiz-adv-x="562" 
d="M542 0h-51l-210 645l-213 -645h-48l231 684h60z" />
    <glyph glyph-name="W" unicode="W" horiz-adv-x="804" 
d="M617 0h-58l-157 633l-158 -633h-57l-155 684h49l137 -639l157 639h54l159 -639l137 639h46z" />
    <glyph glyph-name="Wacute" unicode="&#x1e82;" horiz-adv-x="804" 
d="M617 0h-58l-157 633l-158 -633h-57l-155 684h49l137 -639l157 639h54l159 -639l137 639h46zM504 836l-192 -77l-13 29l183 92z" />
    <glyph glyph-name="Wcircumflex" unicode="&#x174;" horiz-adv-x="804" 
d="M617 0h-58l-157 633l-158 -633h-57l-155 684h49l137 -639l157 639h54l159 -639l137 639h46zM402 843l-121 -80l-21 25l128 99h27l127 -99l-21 -25z" />
    <glyph glyph-name="Wdieresis" unicode="&#x1e84;" horiz-adv-x="804" 
d="M617 0h-58l-157 633l-158 -633h-57l-155 684h49l137 -639l157 639h54l159 -639l137 639h46zM335.5 848.5q9.5 -9.5 9.5 -23.5t-9.5 -23.5t-24.5 -9.5t-24.5 9.5t-9.5 23.5t9.5 23.5t24.5 9.5t24.5 -9.5zM516.5 848.5q9.5 -9.5 9.5 -23.5t-9.5 -23.5t-23.5 -9.5
q-15 0 -24.5 9.5t-9.5 23.5t9.5 23.5t24.5 9.5q14 0 23.5 -9.5z" />
    <glyph glyph-name="Wgrave" unicode="&#x1e80;" horiz-adv-x="804" 
d="M617 0h-58l-157 633l-158 -633h-57l-155 684h49l137 -639l157 639h54l159 -639l137 639h46zM501 788l-13 -29l-192 77l22 44z" />
    <glyph glyph-name="uni2C72" unicode="&#x2c72;" horiz-adv-x="842" 
d="M617 0h-58l-157 633l-158 -633h-57l-155 684h49l137 -639l157 639h54l159 -639l117 553q10 50 38 73t69 23q27 0 47.5 -9.5t40.5 -27.5l-21 -28q-18 14 -31.5 20.5t-33.5 6.5q-28 0 -44 -14.5t-24 -51.5z" />
    <glyph glyph-name="uni01F7" unicode="&#x1f7;" horiz-adv-x="566" 
d="M466.5 646q50.5 -48 50.5 -131q0 -102 -65.5 -160.5t-186.5 -102.5l-103 -37v-215h-47v684h47v-58q75 68 174 68q80 0 130.5 -48zM414.5 379q52.5 50 52.5 136q0 66 -36.5 102t-98.5 36q-53 0 -94 -18t-76 -50v-328l104 37q96 35 148.5 85z" />
    <glyph glyph-name="X" unicode="X" horiz-adv-x="502" 
d="M493 0h-54l-190 338l-185 -338h-52l210 368l-189 316h54l163 -285l161 285h52l-185 -313z" />
    <glyph glyph-name="Y" unicode="Y" horiz-adv-x="513" 
d="M281 269v-269h-47v268l-218 416h53l190 -374l186 374h52z" />
    <glyph glyph-name="Yacute" unicode="&#xdd;" horiz-adv-x="513" 
d="M281 269v-269h-47v268l-218 416h53l190 -374l186 374h52zM359 836l-192 -77l-13 29l183 92z" />
    <glyph glyph-name="Ycircumflex" unicode="&#x176;" horiz-adv-x="513" 
d="M281 269v-269h-47v268l-218 416h53l190 -374l186 374h52zM257 843l-121 -80l-21 25l128 99h27l127 -99l-21 -25z" />
    <glyph glyph-name="Ydieresis" unicode="&#x178;" horiz-adv-x="513" 
d="M281 269v-269h-47v268l-218 416h53l190 -374l186 374h52zM189.5 848.5q9.5 -9.5 9.5 -23.5t-9.5 -23.5t-24.5 -9.5t-24.5 9.5t-9.5 23.5t9.5 23.5t24.5 9.5t24.5 -9.5zM370.5 848.5q9.5 -9.5 9.5 -23.5t-9.5 -23.5t-23.5 -9.5q-15 0 -24.5 9.5t-9.5 23.5t9.5 23.5
t24.5 9.5q14 0 23.5 -9.5z" />
    <glyph glyph-name="uni1EF4" unicode="&#x1ef4;" horiz-adv-x="513" 
d="M281 269v-269h-47v268l-218 416h53l190 -374l186 374h52zM231.5 -150q-9.5 10 -9.5 25t9.5 25t26.5 10q16 0 26 -10t10 -25t-10 -25t-26 -10q-17 0 -26.5 10z" />
    <glyph glyph-name="Ygrave" unicode="&#x1ef2;" horiz-adv-x="513" 
d="M281 269v-269h-47v268l-218 416h53l190 -374l186 374h52zM356 788l-13 -29l-192 77l22 44z" />
    <glyph glyph-name="uni01B3" unicode="&#x1b3;" horiz-adv-x="535" 
d="M234 268l-218 416h53l190 -374l136 297q21 46 46.5 66.5t63.5 20.5q27 0 47.5 -9.5t41.5 -27.5l-22 -28q-16 14 -30.5 20.5t-34.5 6.5q-24 0 -39.5 -13.5t-33.5 -51.5l-153 -322v-269h-47v268z" />
    <glyph glyph-name="uni1EF6" unicode="&#x1ef6;" horiz-adv-x="513" 
d="M281 269v-269h-47v268l-218 416h53l190 -374l186 374h52zM234 847q33 2 51 12.5t18 35.5q0 20 -12.5 31t-35.5 11q-30 0 -58 -14l-14 30q37 20 77 20t63.5 -20.5t23.5 -54.5q0 -33 -18.5 -51.5t-54.5 -22.5v-46h-40v69z" />
    <glyph glyph-name="uni0232" unicode="&#x232;" horiz-adv-x="513" 
d="M281 269v-269h-47v268l-218 416h53l190 -374l186 374h52zM142 805v39h229v-39h-229z" />
    <glyph glyph-name="uni021C" unicode="&#x21c;" horiz-adv-x="500" 
d="M371 646q51 -48 51 -128q0 -66 -35.5 -105t-95.5 -53q68 -8 110 -47.5t42 -110.5q0 -106 -86.5 -176t-289.5 -112l-5 42q123 26 196 61t104 80t31 104q0 66 -45.5 101.5t-131.5 34.5h-61l6 41h52q73 0 116.5 36t43.5 103q0 63 -38 99.5t-108 36.5q-49 0 -91.5 -18.5
t-84.5 -53.5l-26 30q46 42 95.5 62.5t108.5 20.5q91 0 142 -48z" />
    <glyph glyph-name="uni01A6" unicode="&#x1a6;" horiz-adv-x="584" 
d="M310 185h-148v-185h-47v684h47v-128h114q237 0 237 -183q0 -75 -39.5 -118.5t-114.5 -61.5l189 -321h-58zM283 225q180 0 180 148q0 72 -44.5 107t-145.5 35h-111v-290h121z" />
    <glyph glyph-name="uni024E" unicode="&#x24e;" horiz-adv-x="513" 
d="M449 591h48v-35h-67l-149 -287v-269h-47v268l-151 288h-66v35h48l-49 93h53l47 -93h283l46 93h52zM381 556h-247l125 -246z" />
    <glyph glyph-name="uni1EF8" unicode="&#x1ef8;" horiz-adv-x="513" 
d="M281 269v-269h-47v268l-218 416h53l190 -374l186 374h52zM281 802.5q-16 6.5 -36 18.5q-30 19 -47 19t-29.5 -8.5t-27.5 -28.5l-29 15q37 60 86 60q15 0 28 -5.5t33 -17.5q18 -10 30.5 -15.5t25.5 -5.5q16 0 28.5 9.5t28.5 33.5l29 -15q-32 -66 -86 -66q-18 0 -34 6.5z
" />
    <glyph glyph-name="Z" unicode="Z" horiz-adv-x="514" 
d="M465 644l-373 -601h364l-6 -43h-413v40l375 602h-337v42h390v-40z" />
    <glyph glyph-name="Zacute" unicode="&#x179;" horiz-adv-x="514" 
d="M465 644l-373 -601h364l-6 -43h-413v40l375 602h-337v42h390v-40zM362 836l-192 -77l-13 29l183 92z" />
    <glyph glyph-name="Zacute.loclPLK" horiz-adv-x="514" 
d="M465 644l-373 -601h364l-6 -43h-413v40l375 602h-337v42h390v-40zM365 876l-116 -145l-25 16l101 155z" />
    <glyph glyph-name="Zcaron" unicode="&#x17d;" horiz-adv-x="514" 
d="M465 644l-373 -601h364l-6 -43h-413v40l375 602h-337v42h390v-40zM401 855l-127 -98h-27l-128 98l21 25l121 -79l119 79z" />
    <glyph glyph-name="Zdotaccent" unicode="&#x17b;" horiz-adv-x="514" 
d="M465 644l-373 -601h364l-6 -43h-413v40l375 602h-337v42h390v-40zM286 860q10 -10 10 -25t-10 -25t-26 -10t-26 10t-10 25t10 25t26 10t26 -10z" />
    <glyph glyph-name="uni1E92" unicode="&#x1e92;" horiz-adv-x="514" 
d="M465 644l-373 -601h364l-6 -43h-413v40l375 602h-337v42h390v-40zM231.5 -150q-9.5 10 -9.5 25t9.5 25t26.5 10q16 0 26 -10t10 -25t-10 -25t-26 -10q-17 0 -26.5 10z" />
    <glyph glyph-name="uni0224" unicode="&#x224;" horiz-adv-x="514" 
d="M465 644l-373 -601h361v-119q0 -62 -31.5 -94.5t-84.5 -32.5q-54 0 -97 33l20 32q17 -12 34.5 -18t41.5 -6q70 0 70 86v76h-369v40l375 602h-337v42h390v-40z" />
    <glyph glyph-name="uni01B5" unicode="&#x1b5;" horiz-adv-x="514" 
d="M465 644l-174 -280h111v-40h-136l-175 -281h365l-6 -43h-413v40l178 284h-103v40h127l174 278h-338v42h390v-40z" />
    <glyph glyph-name="uniA7AD" unicode="&#xa7ad;" horiz-adv-x="504" 
d="M484 44l-7 -44h-328v272q-62 0 -95 24.5t-33 70.5q0 41 28.5 65t70.5 24q13 0 29 -2v230h48v-375q47 1 117 12l5 -34q-59 -11 -122 -14v-229h287zM84.5 323q21.5 -14 64.5 -14v109q-16 2 -27 2q-27 0 -43 -13.5t-16 -38.5q0 -31 21.5 -45z" />
    <glyph glyph-name="uni0299" unicode="&#x299;" horiz-adv-x="545" 
d="M444.5 245q33.5 -32 33.5 -91q0 -78 -57 -116t-152 -38h-159v516q84 16 156 16q88 0 135.5 -36.5t47.5 -98.5q0 -89 -99 -114q61 -6 94.5 -38zM156 484v-186h132q54 0 84 24.5t30 71.5t-33 73t-102 26q-60 0 -111 -9zM384 65q46 26 46 88q0 56 -34.5 82t-101.5 26h-138
v-222h110q72 0 118 26z" />
    <glyph glyph-name="uni0262" unicode="&#x262;" horiz-adv-x="553" 
d="M382.5 520.5q37.5 -13.5 73.5 -41.5l-27 -30q-31 23 -62.5 33.5t-68.5 10.5q-49 0 -90.5 -24t-67 -75.5t-25.5 -128.5q0 -120 48 -177t135 -57q69 0 122 28v184h-116l-5 39h167v-246q-78 -45 -168 -45q-108 0 -169.5 69t-61.5 205q0 84 32 145t84.5 92.5t113.5 31.5
q48 0 85.5 -13.5z" />
    <glyph glyph-name="uni029B" unicode="&#x29b;" horiz-adv-x="553" 
d="M623 708l-20 -30q-19 12 -36 18t-40 6q-71 0 -71 -87v-136l-24 -26q-32 21 -64 30.5t-70 9.5q-49 0 -90.5 -24t-67 -75.5t-25.5 -128.5q0 -120 48 -177t135 -57q69 0 122 28v184h-116l-5 39h167v-246q-78 -45 -168 -45q-108 0 -169.5 69t-61.5 205q0 84 32 145t84.5 92.5
t113.5 31.5q62 0 113 -28v108q0 62 31 94.5t84 32.5q55 0 98 -33z" />
    <glyph glyph-name="uni029C" unicode="&#x29c;" horiz-adv-x="586" 
d="M430 251h-274v-251h-46v522h46v-231h274v231h46v-522h-46v251z" />
    <glyph glyph-name="uni026A" unicode="&#x26a;" horiz-adv-x="315" 
d="M180 483v-444h106v-39h-257v39h105v444h-105v39h257v-39h-106z" />
    <glyph glyph-name="uni029F" unicode="&#x29f;" horiz-adv-x="409" 
d="M156 41h242l-7 -41h-281v522h46v-481z" />
    <glyph glyph-name="uni0274" unicode="&#x274;" horiz-adv-x="588" 
d="M478 0h-59l-271 477q5 -75 5 -202v-275h-43v522h58l271 -478q-5 88 -5 170v308h44v-522z" />
    <glyph glyph-name="uni0276" unicode="&#x276;" horiz-adv-x="725" 
d="M678 0h-330q-33 -11 -65 -11q-101 0 -158.5 72.5t-57.5 198.5q0 127 58.5 199.5t158.5 72.5q38 0 69 -10h320l-5 -39h-255q37 -26 60 -75.5t27 -115.5h135v-38h-134q-1 -78 -26 -131.5t-67 -83.5h270v-39zM159 89q44 -60 124 -60q79 0 124.5 61t45.5 175q0 110 -46 168.5
t-123 58.5q-79 0 -124 -59.5t-45 -172.5q0 -111 44 -171z" />
    <glyph glyph-name="uni0280" unicode="&#x280;" horiz-adv-x="511" 
d="M269 221h-113v-221h-46v522h127q103 0 154 -38.5t51 -112.5q0 -111 -128 -142l152 -229h-54zM244 259q73 0 111.5 28.5t38.5 83.5q0 57 -37.5 84.5t-121.5 27.5h-79v-224h88z" />
    <glyph glyph-name="uni0281" unicode="&#x281;" horiz-adv-x="511" 
d="M408.5 246q33.5 -36 33.5 -93q0 -153 -205 -153h-127v522h46v-221h116l144 221h50l-151 -227q60 -13 93.5 -49zM356.5 67q37.5 28 37.5 86q0 109 -150 109h-88v-223h79q84 0 121.5 28z" />
    <glyph glyph-name="uni028F" unicode="&#x28f;" horiz-adv-x="416" 
d="M232 208v-208h-46v207l-179 315h51l152 -277l148 277h50z" />
    <glyph glyph-name="a" unicode="a" horiz-adv-x="534" 
d="M435.5 50q10.5 -19 33.5 -28l-11 -33q-34 9 -51.5 29.5t-21.5 61.5q-58 -91 -165 -91q-74 0 -117 42.5t-43 113.5q0 80 57 123.5t155 43.5h107v55q0 65 -29 95t-96 30q-63 0 -142 -31l-13 37q87 34 159 34q86 0 126.5 -41t40.5 -121v-257q0 -44 10.5 -63zM379 127v149
h-100q-82 0 -126 -32.5t-44 -97.5q0 -56 31 -87t86 -31q101 0 153 99z" />
    <glyph glyph-name="aacute" unicode="&#xe1;" horiz-adv-x="534" 
d="M435.5 50q10.5 -19 33.5 -28l-11 -33q-34 9 -51.5 29.5t-21.5 61.5q-58 -91 -165 -91q-74 0 -117 42.5t-43 113.5q0 80 57 123.5t155 43.5h107v55q0 65 -29 95t-96 30q-63 0 -142 -31l-13 37q87 34 159 34q86 0 126.5 -41t40.5 -121v-257q0 -44 10.5 -63zM379 127v149
h-100q-82 0 -126 -32.5t-44 -97.5q0 -56 31 -87t86 -31q101 0 153 99zM352 732l-190 -84l-15 28l184 100z" />
    <glyph glyph-name="abreve" unicode="&#x103;" horiz-adv-x="534" 
d="M435.5 50q10.5 -19 33.5 -28l-11 -33q-34 9 -51.5 29.5t-21.5 61.5q-58 -91 -165 -91q-74 0 -117 42.5t-43 113.5q0 80 57 123.5t155 43.5h107v55q0 65 -29 95t-96 30q-63 0 -142 -31l-13 37q87 34 159 34q86 0 126.5 -41t40.5 -121v-257q0 -44 10.5 -63zM379 127v149
h-100q-82 0 -126 -32.5t-44 -97.5q0 -56 31 -87t86 -31q101 0 153 99zM174.5 684q-33.5 28 -40.5 75l32 7q20 -70 91 -70t91 70l32 -7q-7 -46 -40.5 -74.5t-82.5 -28.5t-82.5 28z" />
    <glyph glyph-name="uni1EAF" unicode="&#x1eaf;" horiz-adv-x="534" 
d="M257 714l-22 20l105 128l32 -30zM175 622.5q-34 26.5 -41 65.5l32 8q10 -28 33.5 -44.5t57.5 -16.5t57.5 16.5t33.5 44.5l32 -8q-7 -39 -41 -65.5t-82 -26.5t-82 26.5zM435.5 50q10.5 -19 33.5 -28l-11 -33q-34 9 -51.5 29.5t-21.5 61.5q-58 -91 -165 -91
q-74 0 -117 42.5t-43 113.5q0 80 57 123.5t155 43.5h107v55q0 65 -29 95t-96 30q-63 0 -142 -31l-13 37q87 34 159 34q86 0 126.5 -41t40.5 -121v-257q0 -44 10.5 -63zM379 127v149h-100q-82 0 -126 -32.5t-44 -97.5q0 -56 31 -87t86 -31q101 0 153 99z" />
    <glyph glyph-name="uni1EB7" unicode="&#x1eb7;" horiz-adv-x="534" 
d="M435.5 50q10.5 -19 33.5 -28l-11 -33q-34 9 -51.5 29.5t-21.5 61.5q-58 -91 -165 -91q-74 0 -117 42.5t-43 113.5q0 80 57 123.5t155 43.5h107v55q0 65 -29 95t-96 30q-63 0 -142 -31l-13 37q87 34 159 34q86 0 126.5 -41t40.5 -121v-257q0 -44 10.5 -63zM379 127v149
h-100q-82 0 -126 -32.5t-44 -97.5q0 -56 31 -87t86 -31q101 0 153 99zM174.5 684q-33.5 28 -40.5 75l32 7q20 -70 91 -70t91 70l32 -7q-7 -46 -40.5 -74.5t-82.5 -28.5t-82.5 28zM230.5 -150q-9.5 10 -9.5 25t9.5 25t26.5 10q16 0 26 -10t10 -25t-10 -25t-26 -10
q-17 0 -26.5 10z" />
    <glyph glyph-name="uni1EB1" unicode="&#x1eb1;" horiz-adv-x="534" 
d="M267 714l-114 118l32 30l104 -128zM175 622.5q-34 26.5 -41 65.5l32 8q10 -28 33.5 -44.5t57.5 -16.5t57.5 16.5t33.5 44.5l32 -8q-7 -39 -41 -65.5t-82 -26.5t-82 26.5zM435.5 50q10.5 -19 33.5 -28l-11 -33q-34 9 -51.5 29.5t-21.5 61.5q-58 -91 -165 -91
q-74 0 -117 42.5t-43 113.5q0 80 57 123.5t155 43.5h107v55q0 65 -29 95t-96 30q-63 0 -142 -31l-13 37q87 34 159 34q86 0 126.5 -41t40.5 -121v-257q0 -44 10.5 -63zM379 127v149h-100q-82 0 -126 -32.5t-44 -97.5q0 -56 31 -87t86 -31q101 0 153 99z" />
    <glyph glyph-name="uni1EB3" unicode="&#x1eb3;" horiz-adv-x="534" 
d="M199 847l-14 30q36 21 77 21q40 0 63.5 -20.5t23.5 -55.5q0 -65 -73 -74v-56h-40v80q33 2 51 12.5t18 35.5q0 20 -12.5 31t-35.5 11q-31 0 -58 -15zM175 622.5q-34 26.5 -41 65.5l32 8q10 -28 33.5 -44.5t57.5 -16.5t57.5 16.5t33.5 44.5l32 -8q-7 -39 -41 -65.5
t-82 -26.5t-82 26.5zM435.5 50q10.5 -19 33.5 -28l-11 -33q-34 9 -51.5 29.5t-21.5 61.5q-58 -91 -165 -91q-74 0 -117 42.5t-43 113.5q0 80 57 123.5t155 43.5h107v55q0 65 -29 95t-96 30q-63 0 -142 -31l-13 37q87 34 159 34q86 0 126.5 -41t40.5 -121v-257
q0 -44 10.5 -63zM379 127v149h-100q-82 0 -126 -32.5t-44 -97.5q0 -56 31 -87t86 -31q101 0 153 99z" />
    <glyph glyph-name="uni1EB5" unicode="&#x1eb5;" horiz-adv-x="534" 
d="M171.5 779.5q-12.5 -8.5 -27.5 -28.5l-29 15q37 60 86 60q15 0 28 -5.5t33 -17.5q18 -10 30.5 -15.5t25.5 -5.5q16 0 28.5 9.5t28.5 33.5l29 -15q-32 -66 -86 -66q-18 0 -34 6.5t-36 18.5q-30 19 -47 19t-29.5 -8.5zM314.5 651.5q23.5 16.5 33.5 44.5l32 -8
q-7 -39 -41 -65.5t-82 -26.5t-82 26.5t-41 65.5l32 8q10 -28 33.5 -44.5t57.5 -16.5t57.5 16.5zM435.5 50q10.5 -19 33.5 -28l-11 -33q-34 9 -51.5 29.5t-21.5 61.5q-58 -91 -165 -91q-74 0 -117 42.5t-43 113.5q0 80 57 123.5t155 43.5h107v55q0 65 -29 95t-96 30
q-63 0 -142 -31l-13 37q87 34 159 34q86 0 126.5 -41t40.5 -121v-257q0 -44 10.5 -63zM379 127v149h-100q-82 0 -126 -32.5t-44 -97.5q0 -56 31 -87t86 -31q101 0 153 99z" />
    <glyph glyph-name="uni01CE" unicode="&#x1ce;" horiz-adv-x="534" 
d="M435.5 50q10.5 -19 33.5 -28l-11 -33q-34 9 -51.5 29.5t-21.5 61.5q-58 -91 -165 -91q-74 0 -117 42.5t-43 113.5q0 80 57 123.5t155 43.5h107v55q0 65 -29 95t-96 30q-63 0 -142 -31l-13 37q87 34 159 34q86 0 126.5 -41t40.5 -121v-257q0 -44 10.5 -63zM379 127v149
h-100q-82 0 -126 -32.5t-44 -97.5q0 -56 31 -87t86 -31q101 0 153 99zM398 739l-127 -104h-27l-128 104l21 24l121 -84l119 84z" />
    <glyph glyph-name="acircumflex" unicode="&#xe2;" horiz-adv-x="534" 
d="M435.5 50q10.5 -19 33.5 -28l-11 -33q-34 9 -51.5 29.5t-21.5 61.5q-58 -91 -165 -91q-74 0 -117 42.5t-43 113.5q0 80 57 123.5t155 43.5h107v55q0 65 -29 95t-96 30q-63 0 -142 -31l-13 37q87 34 159 34q86 0 126.5 -41t40.5 -121v-257q0 -44 10.5 -63zM379 127v149
h-100q-82 0 -126 -32.5t-44 -97.5q0 -56 31 -87t86 -31q101 0 153 99zM116 672l127 103h27l128 -103l-21 -25l-120 84l-120 -84z" />
    <glyph glyph-name="uni1EA5" unicode="&#x1ea5;" horiz-adv-x="534" 
d="M365 685l-22 20l105 128l32 -30zM135 586l-21 25l128 99h27l127 -99l-21 -25l-119 80zM435.5 50q10.5 -19 33.5 -28l-11 -33q-34 9 -51.5 29.5t-21.5 61.5q-58 -91 -165 -91q-74 0 -117 42.5t-43 113.5q0 80 57 123.5t155 43.5h107v55q0 65 -29 95t-96 30q-63 0 -142 -31
l-13 37q87 34 159 34q86 0 126.5 -41t40.5 -121v-257q0 -44 10.5 -63zM379 127v149h-100q-82 0 -126 -32.5t-44 -97.5q0 -56 31 -87t86 -31q101 0 153 99z" />
    <glyph glyph-name="uni1EAD" unicode="&#x1ead;" horiz-adv-x="534" 
d="M435.5 50q10.5 -19 33.5 -28l-11 -33q-34 9 -51.5 29.5t-21.5 61.5q-58 -91 -165 -91q-74 0 -117 42.5t-43 113.5q0 80 57 123.5t155 43.5h107v55q0 65 -29 95t-96 30q-63 0 -142 -31l-13 37q87 34 159 34q86 0 126.5 -41t40.5 -121v-257q0 -44 10.5 -63zM379 127v149
h-100q-82 0 -126 -32.5t-44 -97.5q0 -56 31 -87t86 -31q101 0 153 99zM116 672l127 103h27l128 -103l-21 -25l-120 84l-120 -84zM230.5 -150q-9.5 10 -9.5 25t9.5 25t26.5 10q16 0 26 -10t10 -25t-10 -25t-26 -10q-17 0 -26.5 10z" />
    <glyph glyph-name="uni1EA7" unicode="&#x1ea7;" horiz-adv-x="534" 
d="M152 685l-114 118l32 30l104 -128zM115 611l128 99h27l127 -99l-21 -25l-119 80l-121 -80zM435.5 50q10.5 -19 33.5 -28l-11 -33q-34 9 -51.5 29.5t-21.5 61.5q-58 -91 -165 -91q-74 0 -117 42.5t-43 113.5q0 80 57 123.5t155 43.5h107v55q0 65 -29 95t-96 30
q-63 0 -142 -31l-13 37q87 34 159 34q86 0 126.5 -41t40.5 -121v-257q0 -44 10.5 -63zM379 127v149h-100q-82 0 -126 -32.5t-44 -97.5q0 -56 31 -87t86 -31q101 0 153 99z" />
    <glyph glyph-name="uni1EA9" unicode="&#x1ea9;" horiz-adv-x="534" 
d="M317 834l-14 30q36 21 77 21q40 0 63.5 -20.5t23.5 -55.5q0 -65 -73 -74v-56h-40v80q33 2 51 12.5t18 35.5q0 20 -12.5 31t-35.5 11q-31 0 -58 -15zM135 586l-21 25l128 99h27l127 -99l-21 -25l-119 80zM435.5 50q10.5 -19 33.5 -28l-11 -33q-34 9 -51.5 29.5t-21.5 61.5
q-58 -91 -165 -91q-74 0 -117 42.5t-43 113.5q0 80 57 123.5t155 43.5h107v55q0 65 -29 95t-96 30q-63 0 -142 -31l-13 37q87 34 159 34q86 0 126.5 -41t40.5 -121v-257q0 -44 10.5 -63zM379 127v149h-100q-82 0 -126 -32.5t-44 -97.5q0 -56 31 -87t86 -31q101 0 153 99z
" />
    <glyph glyph-name="uni1EAB" unicode="&#x1eab;" horiz-adv-x="534" 
d="M168.5 775.5q-12.5 -8.5 -27.5 -28.5l-29 15q37 60 86 60q15 0 28 -5.5t33 -17.5q18 -10 30.5 -15.5t25.5 -5.5q16 0 28.5 9.5t28.5 33.5l29 -15q-32 -66 -86 -66q-18 0 -34 6.5t-36 18.5q-30 19 -47 19t-29.5 -8.5zM270 700l127 -99l-21 -25l-119 80l-121 -80l-21 25
l128 99h27zM435.5 50q10.5 -19 33.5 -28l-11 -33q-34 9 -51.5 29.5t-21.5 61.5q-58 -91 -165 -91q-74 0 -117 42.5t-43 113.5q0 80 57 123.5t155 43.5h107v55q0 65 -29 95t-96 30q-63 0 -142 -31l-13 37q87 34 159 34q86 0 126.5 -41t40.5 -121v-257q0 -44 10.5 -63z
M379 127v149h-100q-82 0 -126 -32.5t-44 -97.5q0 -56 31 -87t86 -31q101 0 153 99z" />
    <glyph glyph-name="uni0201" unicode="&#x201;" horiz-adv-x="534" 
d="M435.5 50q10.5 -19 33.5 -28l-11 -33q-34 9 -51.5 29.5t-21.5 61.5q-58 -91 -165 -91q-74 0 -117 42.5t-43 113.5q0 80 57 123.5t155 43.5h107v55q0 65 -29 95t-96 30q-63 0 -142 -31l-13 37q87 34 159 34q86 0 126.5 -41t40.5 -121v-257q0 -44 10.5 -63zM379 127v149
h-100q-82 0 -126 -32.5t-44 -97.5q0 -56 31 -87t86 -31q101 0 153 99zM227 660l-31 -15l-88 136l43 23zM341 664l-31 -15l-80 132l43 22z" />
    <glyph glyph-name="adieresis" unicode="&#xe4;" horiz-adv-x="534" 
d="M435.5 50q10.5 -19 33.5 -28l-11 -33q-34 9 -51.5 29.5t-21.5 61.5q-58 -91 -165 -91q-74 0 -117 42.5t-43 113.5q0 80 57 123.5t155 43.5h107v55q0 65 -29 95t-96 30q-63 0 -142 -31l-13 37q87 34 159 34q86 0 126.5 -41t40.5 -121v-257q0 -44 10.5 -63zM379 127v149
h-100q-82 0 -126 -32.5t-44 -97.5q0 -56 31 -87t86 -31q101 0 153 99zM190.5 722.5q9.5 -9.5 9.5 -23.5t-9.5 -23.5t-24.5 -9.5t-24.5 9.5t-9.5 23.5t9.5 23.5t24.5 9.5t24.5 -9.5zM371.5 722.5q9.5 -9.5 9.5 -23.5t-9.5 -23.5t-23.5 -9.5q-15 0 -24.5 9.5t-9.5 23.5
t9.5 23.5t24.5 9.5q14 0 23.5 -9.5z" />
    <glyph glyph-name="uni01DF" unicode="&#x1df;" horiz-adv-x="534" 
d="M373 766h-229v39h229v-39zM141.5 645.5q-9.5 9.5 -9.5 23.5t9.5 23.5t24.5 9.5t24.5 -9.5t9.5 -23.5t-9.5 -23.5t-24.5 -9.5t-24.5 9.5zM371.5 692.5q9.5 -9.5 9.5 -23.5t-9.5 -23.5t-23.5 -9.5q-15 0 -24.5 9.5t-9.5 23.5t9.5 23.5t24.5 9.5q14 0 23.5 -9.5zM435.5 50
q10.5 -19 33.5 -28l-11 -33q-34 9 -51.5 29.5t-21.5 61.5q-58 -91 -165 -91q-74 0 -117 42.5t-43 113.5q0 80 57 123.5t155 43.5h107v55q0 65 -29 95t-96 30q-63 0 -142 -31l-13 37q87 34 159 34q86 0 126.5 -41t40.5 -121v-257q0 -44 10.5 -63zM379 127v149h-100
q-82 0 -126 -32.5t-44 -97.5q0 -56 31 -87t86 -31q101 0 153 99z" />
    <glyph glyph-name="uni0227" unicode="&#x227;" horiz-adv-x="534" 
d="M435.5 50q10.5 -19 33.5 -28l-11 -33q-34 9 -51.5 29.5t-21.5 61.5q-58 -91 -165 -91q-74 0 -117 42.5t-43 113.5q0 80 57 123.5t155 43.5h107v55q0 65 -29 95t-96 30q-63 0 -142 -31l-13 37q87 34 159 34q86 0 126.5 -41t40.5 -121v-257q0 -44 10.5 -63zM379 127v149
h-100q-82 0 -126 -32.5t-44 -97.5q0 -56 31 -87t86 -31q101 0 153 99zM283 734q10 -10 10 -25t-10 -25t-26 -10t-26 10t-10 25t10 25t26 10t26 -10z" />
    <glyph glyph-name="uni1EA1" unicode="&#x1ea1;" horiz-adv-x="534" 
d="M435.5 50q10.5 -19 33.5 -28l-11 -33q-34 9 -51.5 29.5t-21.5 61.5q-58 -91 -165 -91q-74 0 -117 42.5t-43 113.5q0 80 57 123.5t155 43.5h107v55q0 65 -29 95t-96 30q-63 0 -142 -31l-13 37q87 34 159 34q86 0 126.5 -41t40.5 -121v-257q0 -44 10.5 -63zM379 127v149
h-100q-82 0 -126 -32.5t-44 -97.5q0 -56 31 -87t86 -31q101 0 153 99zM230.5 -150q-9.5 10 -9.5 25t9.5 25t26.5 10q16 0 26 -10t10 -25t-10 -25t-26 -10q-17 0 -26.5 10z" />
    <glyph glyph-name="uni01E1" unicode="&#x1e1;" horiz-adv-x="534" 
d="M372 753h-229v39h229v-39zM231 684q10 10 26 10t26 -10t10 -25t-10 -25t-26 -10t-26 10t-10 25t10 25zM435.5 50q10.5 -19 33.5 -28l-11 -33q-34 9 -51.5 29.5t-21.5 61.5q-58 -91 -165 -91q-74 0 -117 42.5t-43 113.5q0 80 57 123.5t155 43.5h107v55q0 65 -29 95t-96 30
q-63 0 -142 -31l-13 37q87 34 159 34q86 0 126.5 -41t40.5 -121v-257q0 -44 10.5 -63zM379 127v149h-100q-82 0 -126 -32.5t-44 -97.5q0 -56 31 -87t86 -31q101 0 153 99z" />
    <glyph glyph-name="agrave" unicode="&#xe0;" horiz-adv-x="534" 
d="M435.5 50q10.5 -19 33.5 -28l-11 -33q-34 9 -51.5 29.5t-21.5 61.5q-58 -91 -165 -91q-74 0 -117 42.5t-43 113.5q0 80 57 123.5t155 43.5h107v55q0 65 -29 95t-96 30q-63 0 -142 -31l-13 37q87 34 159 34q86 0 126.5 -41t40.5 -121v-257q0 -44 10.5 -63zM379 127v149
h-100q-82 0 -126 -32.5t-44 -97.5q0 -56 31 -87t86 -31q101 0 153 99zM362 676l-15 -28l-190 84l21 44z" />
    <glyph glyph-name="uni1EA3" unicode="&#x1ea3;" horiz-adv-x="534" 
d="M435.5 50q10.5 -19 33.5 -28l-11 -33q-34 9 -51.5 29.5t-21.5 61.5q-58 -91 -165 -91q-74 0 -117 42.5t-43 113.5q0 80 57 123.5t155 43.5h107v55q0 65 -29 95t-96 30q-63 0 -142 -31l-13 37q87 34 159 34q86 0 126.5 -41t40.5 -121v-257q0 -44 10.5 -63zM379 127v149
h-100q-82 0 -126 -32.5t-44 -97.5q0 -56 31 -87t86 -31q101 0 153 99zM234 698q33 2 51 12.5t18 35.5q0 20 -12.5 31t-35.5 11q-31 0 -58 -15l-14 30q36 21 77 21q40 0 63.5 -20.5t23.5 -55.5q0 -65 -73 -74v-56h-40v80z" />
    <glyph glyph-name="uni0203" unicode="&#x203;" horiz-adv-x="534" 
d="M435.5 50q10.5 -19 33.5 -28l-11 -33q-34 9 -51.5 29.5t-21.5 61.5q-58 -91 -165 -91q-74 0 -117 42.5t-43 113.5q0 80 57 123.5t155 43.5h107v55q0 65 -29 95t-96 30q-63 0 -142 -31l-13 37q87 34 159 34q86 0 126.5 -41t40.5 -121v-257q0 -44 10.5 -63zM379 127v149
h-100q-82 0 -126 -32.5t-44 -97.5q0 -56 31 -87t86 -31q101 0 153 99zM339.5 708q33.5 -28 40.5 -74l-32 -7q-10 34 -33 52t-58 18t-58 -18t-33 -52l-32 7q7 46 40.5 74t82.5 28t82.5 -28z" />
    <glyph glyph-name="uni0251" unicode="&#x251;" horiz-adv-x="580" 
d="M476.5 58.5q10.5 -17.5 37.5 -28.5l-15 -37q-36 12 -54 32.5t-23 56.5q-23 -42 -62.5 -67.5t-92.5 -25.5q-93 0 -146.5 72.5t-53.5 197.5q0 80 25.5 142t72 96.5t109.5 34.5q53 0 88 -21t60 -55l4 66h40v-406q0 -40 10.5 -57.5zM356.5 55q35.5 26 63.5 78v277
q-57 83 -141 83q-48 0 -85 -27t-58 -79.5t-21 -124.5q0 -112 41 -172.5t115 -60.5q50 0 85.5 26z" />
    <glyph glyph-name="uni0252" unicode="&#x252;" horiz-adv-x="580" 
d="M459.5 460.5q53.5 -72.5 53.5 -197.5q0 -80 -25.5 -142t-72 -96.5t-109.5 -34.5q-93 0 -148 75l-4 -65h-40v406q0 40 -10.5 57.5t-37.5 28.5l15 37q37 -12 54.5 -32.5t22.5 -56.5q24 42 63 67.5t92 25.5q93 0 146.5 -72.5zM386 56q37 27 58 79.5t21 124.5
q0 112 -41 172.5t-115 60.5q-50 0 -85.5 -26t-63.5 -78v-277q56 -83 141 -83q48 0 85 27z" />
    <glyph glyph-name="amacron" unicode="&#x101;" horiz-adv-x="534" 
d="M435.5 50q10.5 -19 33.5 -28l-11 -33q-34 9 -51.5 29.5t-21.5 61.5q-58 -91 -165 -91q-74 0 -117 42.5t-43 113.5q0 80 57 123.5t155 43.5h107v55q0 65 -29 95t-96 30q-63 0 -142 -31l-13 37q87 34 159 34q86 0 126.5 -41t40.5 -121v-257q0 -44 10.5 -63zM379 127v149
h-100q-82 0 -126 -32.5t-44 -97.5q0 -56 31 -87t86 -31q101 0 153 99zM143 679v39h229v-39h-229z" />
    <glyph glyph-name="aogonek" unicode="&#x105;" horiz-adv-x="534" 
d="M352 -169q16 -14 49 -14q25 0 58 6l-5 -40q-35 -7 -56 -7q-52 0 -79.5 25t-27.5 64q0 43 33 76.5t101 61.5q-18 11 -27.5 29t-12.5 48q-58 -91 -165 -91q-74 0 -117 42.5t-43 113.5q0 80 57 123.5t155 43.5h107v55q0 65 -29 95t-96 30q-63 0 -142 -31l-13 37
q87 34 159 34q86 0 126.5 -41t40.5 -121v-257q0 -44 10.5 -63t33.5 -28l-11 -33v1v-1q-66 -30 -94 -56t-28 -63q0 -25 16 -39zM379 127v149h-100q-82 0 -126 -32.5t-44 -97.5q0 -56 31 -87t86 -31q101 0 153 99z" />
    <glyph glyph-name="aring" unicode="&#xe5;" horiz-adv-x="534" 
d="M435.5 50q10.5 -19 33.5 -28l-11 -33q-34 9 -51.5 29.5t-21.5 61.5q-58 -91 -165 -91q-74 0 -117 42.5t-43 113.5q0 80 57 123.5t155 43.5h107v55q0 65 -29 95t-96 30q-63 0 -142 -31l-13 37q87 34 159 34q86 0 126.5 -41t40.5 -121v-257q0 -44 10.5 -63zM379 127v149
h-100q-82 0 -126 -32.5t-44 -97.5q0 -56 31 -87t86 -31q101 0 153 99zM324 790.5q26 -24.5 26 -64.5t-26 -65t-67 -25t-67 25t-26 65t26 64.5t67 24.5t67 -24.5zM215.5 769.5q-14.5 -15.5 -14.5 -43.5t14.5 -43.5t41.5 -15.5t41.5 15.5t14.5 43.5t-14.5 43.5t-41.5 15.5
t-41.5 -15.5z" />
    <glyph glyph-name="aringacute" unicode="&#x1fb;" horiz-adv-x="534" 
d="M171 776l-13 29l183 92l22 -44zM192 743.5q26 24.5 67 24.5t67 -24.5t26 -64.5t-26 -65t-67 -25t-67 25t-26 65t26 64.5zM300.5 722.5q-14.5 15.5 -41.5 15.5t-41.5 -15.5t-14.5 -43.5t14.5 -43.5t41.5 -15.5t41.5 15.5t14.5 43.5t-14.5 43.5zM435.5 50
q10.5 -19 33.5 -28l-11 -33q-34 9 -51.5 29.5t-21.5 61.5q-58 -91 -165 -91q-74 0 -117 42.5t-43 113.5q0 80 57 123.5t155 43.5h107v55q0 65 -29 95t-96 30q-63 0 -142 -31l-13 37q87 34 159 34q86 0 126.5 -41t40.5 -121v-257q0 -44 10.5 -63zM379 127v149h-100
q-82 0 -126 -32.5t-44 -97.5q0 -56 31 -87t86 -31q101 0 153 99z" />
    <glyph glyph-name="uni2C65" unicode="&#x2c65;" horiz-adv-x="534" 
d="M435.5 50q10.5 -19 33.5 -28l-11 -33q-34 9 -51.5 29.5t-21.5 61.5q-58 -91 -165 -91l-13 1l-17 -60l-27 7l15 56q-56 12 -87 52t-31 100q0 79 55 122.5t151 45.5l47 171q-21 8 -59 8q-63 0 -142 -31l-13 37q87 34 159 34q41 0 66 -8l19 67l26 -8l-18 -68q74 -35 74 -145
v-257q0 -44 10.5 -63zM339 472l-44 -159h84v54q0 76 -40 105zM379 127v149h-94l-68 -248h9q101 0 153 99zM130 71q21 -29 59 -39l67 244q-71 -5 -109 -37.5t-38 -92.5q0 -46 21 -75z" />
    <glyph glyph-name="atilde" unicode="&#xe3;" horiz-adv-x="534" 
d="M435.5 50q10.5 -19 33.5 -28l-11 -33q-34 9 -51.5 29.5t-21.5 61.5q-58 -91 -165 -91q-74 0 -117 42.5t-43 113.5q0 80 57 123.5t155 43.5h107v55q0 65 -29 95t-96 30q-63 0 -142 -31l-13 37q87 34 159 34q86 0 126.5 -41t40.5 -121v-257q0 -44 10.5 -63zM379 127v149
h-100q-82 0 -126 -32.5t-44 -97.5q0 -56 31 -87t86 -31q101 0 153 99zM282 676.5q-16 6.5 -36 18.5q-30 19 -47 19t-29.5 -8.5t-27.5 -28.5l-29 15q37 60 86 60q15 0 28 -5.5t33 -17.5q18 -10 30.5 -15.5t25.5 -5.5q16 0 28.5 9.5t28.5 33.5l29 -15q-32 -66 -86 -66
q-18 0 -34 6.5z" />
    <glyph glyph-name="uni0250" unicode="&#x250;" horiz-adv-x="534" 
d="M422 61l13 -37q-87 -34 -159 -34q-86 0 -126.5 41t-40.5 121v257q0 44 -10.5 63t-33.5 28l11 33q34 -9 51.5 -30t21.5 -62q57 92 165 92q74 0 117 -42.5t43 -113.5q0 -80 -57 -123.5t-155 -43.5h-107v-55q0 -65 29 -95t96 -30q63 0 142 31zM155 395v-149h100
q82 0 126 32.5t44 97.5q0 56 -31 87t-86 31q-101 0 -153 -99z" />
    <glyph glyph-name="ae" unicode="&#xe6;" horiz-adv-x="847" 
d="M782 241h-354q5 -107 51 -159t120 -52q42 0 74 12.5t68 40.5l23 -30q-38 -32 -78 -48t-89 -16q-63 0 -110.5 29t-74.5 83q-41 -60 -86.5 -86t-104.5 -26q-75 0 -118 42.5t-43 113.5q0 80 57 124t156 44h107v54q0 65 -29 95t-96 30q-63 0 -142 -31l-13 37q85 34 159 34
q69 0 108 -27.5t52 -81.5q54 109 170 109q95 0 145 -67t50 -183q0 -21 -2 -41zM739 297q0 91 -38 143.5t-112 52.5q-70 0 -113.5 -53.5t-47.5 -161.5h311v19zM317.5 54.5q39.5 26.5 78.5 84.5q-16 49 -16 117v20h-100q-82 0 -126 -32.5t-44 -97.5q0 -56 31 -87t86 -31
q51 0 90.5 26.5z" />
    <glyph glyph-name="aeacute" unicode="&#x1fd;" horiz-adv-x="847" 
d="M782 241h-354q5 -107 51 -159t120 -52q42 0 74 12.5t68 40.5l23 -30q-38 -32 -78 -48t-89 -16q-63 0 -110.5 29t-74.5 83q-41 -60 -86.5 -86t-104.5 -26q-75 0 -118 42.5t-43 113.5q0 80 57 124t156 44h107v54q0 65 -29 95t-96 30q-63 0 -142 -31l-13 37q85 34 159 34
q69 0 108 -27.5t52 -81.5q54 109 170 109q95 0 145 -67t50 -183q0 -21 -2 -41zM739 297q0 91 -38 143.5t-112 52.5q-70 0 -113.5 -53.5t-47.5 -161.5h311v19zM317.5 54.5q39.5 26.5 78.5 84.5q-16 49 -16 117v20h-100q-82 0 -126 -32.5t-44 -97.5q0 -56 31 -87t86 -31
q51 0 90.5 26.5zM519 732l-190 -84l-15 28l184 100z" />
    <glyph glyph-name="uni01E3" unicode="&#x1e3;" horiz-adv-x="847" 
d="M782 241h-354q5 -107 51 -159t120 -52q42 0 74 12.5t68 40.5l23 -30q-38 -32 -78 -48t-89 -16q-63 0 -110.5 29t-74.5 83q-41 -60 -86.5 -86t-104.5 -26q-75 0 -118 42.5t-43 113.5q0 80 57 124t156 44h107v54q0 65 -29 95t-96 30q-63 0 -142 -31l-13 37q85 34 159 34
q69 0 108 -27.5t52 -81.5q54 109 170 109q95 0 145 -67t50 -183q0 -21 -2 -41zM739 297q0 91 -38 143.5t-112 52.5q-70 0 -113.5 -53.5t-47.5 -161.5h311v19zM317.5 54.5q39.5 26.5 78.5 84.5q-16 49 -16 117v20h-100q-82 0 -126 -32.5t-44 -97.5q0 -56 31 -87t86 -31
q51 0 90.5 26.5zM309 679v39h229v-39h-229z" />
    <glyph glyph-name="b" unicode="b" horiz-adv-x="576" 
d="M455.5 462.5q49.5 -69.5 49.5 -198.5q0 -128 -51.5 -201.5t-144.5 -73.5q-49 0 -88.5 22t-65.5 58l-5 -69h-40v735l46 6v-294q63 85 160 85q90 0 139.5 -69.5zM416 89q40 60 40 175t-37.5 172t-109.5 57q-49 0 -84.5 -24t-68.5 -69v-284q27 -40 64 -63.5t82 -23.5
q74 0 114 60z" />
    <glyph glyph-name="uni1E03" unicode="&#x1e03;" horiz-adv-x="576" 
d="M455.5 462.5q49.5 -69.5 49.5 -198.5q0 -128 -51.5 -201.5t-144.5 -73.5q-49 0 -88.5 22t-65.5 58l-5 -69h-40v735l46 6v-294q63 85 160 85q90 0 139.5 -69.5zM416 89q40 60 40 175t-37.5 172t-109.5 57q-49 0 -84.5 -24t-68.5 -69v-284q27 -40 64 -63.5t82 -23.5
q74 0 114 60zM325 911q10 -10 10 -25t-10 -25t-26 -10t-26 10t-10 25t10 25t26 10t26 -10z" />
    <glyph glyph-name="uni1E05" unicode="&#x1e05;" horiz-adv-x="576" 
d="M455.5 462.5q49.5 -69.5 49.5 -198.5q0 -128 -51.5 -201.5t-144.5 -73.5q-49 0 -88.5 22t-65.5 58l-5 -69h-40v735l46 6v-294q63 85 160 85q90 0 139.5 -69.5zM416 89q40 60 40 175t-37.5 172t-109.5 57q-49 0 -84.5 -24t-68.5 -69v-284q27 -40 64 -63.5t82 -23.5
q74 0 114 60zM274.5 -150q-9.5 10 -9.5 25t9.5 25t26.5 10q16 0 26 -10t10 -25t-10 -25t-26 -10q-17 0 -26.5 10z" />
    <glyph glyph-name="uni0253" unicode="&#x253;" horiz-adv-x="576" 
d="M455.5 462.5q49.5 -69.5 49.5 -198.5q0 -128 -51.5 -201.5t-144.5 -73.5q-49 0 -88.5 22t-65.5 58l-5 -69h-40v612q0 60 37 94.5t101 34.5q62 0 120 -28l-16 -35q-52 23 -101 23q-95 0 -95 -91v-163q63 85 160 85q90 0 139.5 -69.5zM416 89q40 60 40 175t-37.5 172
t-109.5 57q-49 0 -84.5 -24t-68.5 -69v-284q27 -40 64 -63.5t82 -23.5q74 0 114 60z" />
    <glyph glyph-name="uni02AD" unicode="&#x2ad;" horiz-adv-x="319" 
d="M30 526h259v-126h-38v90h-182v-90h-39v126zM30 126h259v-126h-38v90h-182v-90h-39v126z" />
    <glyph glyph-name="uni0298" unicode="&#x298;" horiz-adv-x="791" 
d="M565.5 652.5q73.5 -41.5 114.5 -121t41 -190.5q0 -109 -40 -188t-114 -121.5t-172 -42.5q-96 0 -169.5 41.5t-114.5 121t-41 188.5t41 189t114.5 122.5t169.5 42.5q97 0 170.5 -41.5zM248.5 618.5q-62.5 -35.5 -97.5 -106t-35 -172.5q0 -100 35 -170t98 -105.5t146 -35.5
q131 0 205.5 80.5t74.5 231.5q0 152 -75.5 232.5t-204.5 80.5q-84 0 -146.5 -35.5zM421 366q10 -10 10 -25q0 -14 -10 -24t-26 -10t-26 10t-10 24q0 15 10 25t26 10t26 -10z" />
    <glyph glyph-name="uni02AC" unicode="&#x2ac;" horiz-adv-x="460" 
d="M345 400h-51l-63 224l-63 -224h-51l-72 262h42l58 -229l65 229h44l65 -229l57 229h39zM345 0h-51l-63 224l-63 -224h-51l-72 262h42l58 -229l65 229h44l65 -229l57 229h39z" />
    <glyph glyph-name="uni0180" unicode="&#x180;" horiz-adv-x="582" 
d="M461.5 462.5q49.5 -69.5 49.5 -198.5q0 -128 -51.5 -201.5t-144.5 -73.5q-49 0 -88 22t-66 58l-5 -69h-40v620h-76v38h76v77l46 6v-83h171v-38h-171v-173q65 85 160 85q90 0 139.5 -69.5zM422 89q40 60 40 175t-37.5 172t-109.5 57q-49 0 -84.5 -23.5t-68.5 -68.5v-286
q60 -86 146 -86q74 0 114 60z" />
    <glyph glyph-name="uni0183" unicode="&#x183;" horiz-adv-x="576" 
d="M455.5 462.5q49.5 -69.5 49.5 -198.5q0 -128 -51.5 -201.5t-144.5 -73.5q-49 0 -88.5 22t-65.5 58l-5 -69h-40v735h286l-7 -39h-233v-249q63 85 160 85q90 0 139.5 -69.5zM416 89q40 60 40 175t-37.5 172t-109.5 57q-49 0 -84.5 -24t-68.5 -69v-284q27 -40 64 -63.5
t82 -23.5q74 0 114 60z" />
    <glyph glyph-name="c" unicode="c" horiz-adv-x="466" 
d="M362 520q34 -12 66 -39l-24 -31q-26 21 -53.5 31.5t-63.5 10.5q-78 0 -124.5 -60t-46.5 -174q0 -112 46 -170t124 -58q36 0 65 11.5t57 34.5l24 -31q-62 -56 -146 -56q-66 0 -115.5 32t-76.5 92.5t-27 144.5q0 83 27 145t76 95.5t115 33.5q43 0 77 -12z" />
    <glyph glyph-name="cacute" unicode="&#x107;" horiz-adv-x="466" 
d="M362 520q34 -12 66 -39l-24 -31q-26 21 -53.5 31.5t-63.5 10.5q-78 0 -124.5 -60t-46.5 -174q0 -112 46 -170t124 -58q36 0 65 11.5t57 34.5l24 -31q-62 -56 -146 -56q-66 0 -115.5 32t-76.5 92.5t-27 144.5q0 83 27 145t76 95.5t115 33.5q43 0 77 -12zM378 732l-190 -84
l-15 28l184 100z" />
    <glyph glyph-name="cacute.loclPLK" horiz-adv-x="466" 
d="M362 520q34 -12 66 -39l-24 -31q-26 21 -53.5 31.5t-63.5 10.5q-78 0 -124.5 -60t-46.5 -174q0 -112 46 -170t124 -58q36 0 65 11.5t57 34.5l24 -31q-62 -56 -146 -56q-66 0 -115.5 32t-76.5 92.5t-27 144.5q0 83 27 145t76 95.5t115 33.5q43 0 77 -12zM390 731
l-117 -153l-25 16l102 164z" />
    <glyph glyph-name="ccaron" unicode="&#x10d;" horiz-adv-x="466" 
d="M362 520q34 -12 66 -39l-24 -31q-26 21 -53.5 31.5t-63.5 10.5q-78 0 -124.5 -60t-46.5 -174q0 -112 46 -170t124 -58q36 0 65 11.5t57 34.5l24 -31q-62 -56 -146 -56q-66 0 -115.5 32t-76.5 92.5t-27 144.5q0 83 27 145t76 95.5t115 33.5q43 0 77 -12zM424 739
l-127 -104h-27l-128 104l21 24l121 -84l119 84z" />
    <glyph glyph-name="ccedilla" unicode="&#xe7;" horiz-adv-x="466" 
d="M387 -140q0 -38 -28.5 -60t-70.5 -22q-43 0 -76 20l16 30q28 -15 59 -15q25 0 41 12t16 35t-21 34t-68 11l7 86q-90 8 -142.5 78t-52.5 189q0 83 27 145t76 95.5t115 33.5q43 0 77 -12t66 -39l-24 -31q-26 21 -53.5 31.5t-63.5 10.5q-78 0 -124.5 -60t-46.5 -174
q0 -112 46 -170t124 -58q36 0 65 11.5t57 34.5l24 -31q-58 -52 -137 -55v-57q92 -7 92 -73z" />
    <glyph glyph-name="ccircumflex" unicode="&#x109;" horiz-adv-x="466" 
d="M362 520q34 -12 66 -39l-24 -31q-26 21 -53.5 31.5t-63.5 10.5q-78 0 -124.5 -60t-46.5 -174q0 -112 46 -170t124 -58q36 0 65 11.5t57 34.5l24 -31q-62 -56 -146 -56q-66 0 -115.5 32t-76.5 92.5t-27 144.5q0 83 27 145t76 95.5t115 33.5q43 0 77 -12zM142 672l127 103
h27l128 -103l-21 -25l-120 84l-120 -84z" />
    <glyph glyph-name="uni0255" unicode="&#x255;" horiz-adv-x="477" 
d="M420 184.5q28 -27.5 28 -71.5q0 -57 -43 -90.5t-116 -33.5q-51 0 -96 20l-33 -71l-35 15l36 75q-45 33 -69.5 91.5t-24.5 138.5q0 83 27 145t76 95.5t115 33.5q43 0 77 -12t66 -39l-24 -32q-26 22 -53.5 32.5t-63.5 10.5q-78 0 -124.5 -60t-46.5 -174q0 -132 65 -189
l9 19q30 67 65 95.5t87 28.5q50 0 78 -27.5zM373 50q32 20 32 63q0 29 -16 45t-48 16q-41 0 -69 -26.5t-61 -99.5q38 -18 81 -18q49 0 81 20z" />
    <glyph glyph-name="cdotaccent" unicode="&#x10b;" horiz-adv-x="466" 
d="M362 520q34 -12 66 -39l-24 -31q-26 21 -53.5 31.5t-63.5 10.5q-78 0 -124.5 -60t-46.5 -174q0 -112 46 -170t124 -58q36 0 65 11.5t57 34.5l24 -31q-62 -56 -146 -56q-66 0 -115.5 32t-76.5 92.5t-27 144.5q0 83 27 145t76 95.5t115 33.5q43 0 77 -12zM310 734
q10 -10 10 -25t-10 -25t-26 -10t-26 10t-10 25t10 25t26 10t26 -10z" />
    <glyph glyph-name="uni0188" unicode="&#x188;" horiz-adv-x="466" 
d="M595 708l-20 -30q-19 12 -36 18t-40 6q-71 0 -71 -87v-134l-21 -27q-28 18 -56 28t-64 10q-78 0 -124.5 -60t-46.5 -174q0 -112 46 -170t124 -58q36 0 65.5 12t56.5 35l24 -32q-62 -56 -146 -56q-66 0 -115.5 32t-76.5 92.5t-27 144.5q0 83 27 145t76 95.5t115 33.5
q57 0 97 -24v106q0 62 31 94.5t84 32.5q55 0 98 -33z" />
    <glyph glyph-name="uni0297" unicode="&#x297;" horiz-adv-x="486" 
d="M382.5 520q33.5 -12 65.5 -39l-24 -31q-26 21 -53.5 31.5t-63.5 10.5q-50 0 -89 -39.5t-60.5 -115t-21.5 -177.5t21.5 -175.5t60 -112t89.5 -38.5q35 0 64.5 11.5t57.5 34.5l23 -32q-61 -55 -144 -55q-66 0 -116 45t-77.5 128t-27.5 193t27 194.5t77 131.5t116 47
q42 0 75.5 -12z" />
    <glyph glyph-name="uni023C" unicode="&#x23c;" horiz-adv-x="466" 
d="M286 -11q-40 0 -73 12l-19 -71l-29 7l21 75q-56 29 -87.5 92t-31.5 154q0 83 27 145t76 95.5t115 33.5q23 0 43 -3l17 62l28 -8l-17 -61q37 -12 72 -41l-24 -31q-28 23 -59 33l-121 -442q30 -11 62 -11q36 0 65 11.5t57 34.5l24 -31q-62 -56 -146 -56zM137.5 131.5
q21.5 -51.5 60.5 -76.5l120 435q-20 2 -31 2q-78 0 -124.5 -60t-46.5 -174q0 -75 21.5 -126.5z" />
    <glyph glyph-name="d" unicode="d" horiz-adv-x="581" 
d="M471 735v-735h-40l-5 82q-24 -42 -64 -67.5t-96 -25.5q-89 0 -141.5 72.5t-52.5 197.5q0 81 24.5 142.5t70.5 96t109 34.5q92 0 149 -73v282zM360.5 55q35.5 26 64.5 78v277q-26 38 -60.5 60.5t-82.5 22.5q-73 0 -117.5 -61t-44.5 -170q0 -111 40.5 -172t111.5 -61
q53 0 88.5 26z" />
    <glyph glyph-name="eth" unicode="&#xf0;" horiz-adv-x="558" 
d="M439.5 511.5q39.5 -90.5 39.5 -226.5q0 -145 -56 -220.5t-152 -75.5q-95 0 -149.5 65.5t-54.5 177.5q0 62 22.5 115.5t66 86t103.5 32.5q98 0 168 -86q-9 80 -42.5 143t-95.5 112l-78 -79l-35 14l83 85q-61 37 -125 49l10 38q76 -16 143 -57l69 72l29 -25l-67 -68
q82 -62 121.5 -152.5zM389.5 95.5q42.5 66.5 42.5 192.5q0 32 -1 44q-72 95 -166 95q-72 0 -111 -55t-39 -140q0 -97 41 -150t115 -53q76 0 118.5 66.5z" />
    <glyph glyph-name="uni0238" unicode="&#x238;" horiz-adv-x="851" 
d="M732.5 462q47.5 -70 47.5 -198q0 -127 -49.5 -201t-136.5 -74q-46 0 -83.5 26.5t-59.5 67.5l-6 -83h-34l-5 83q-24 -42 -62 -68t-88 -26q-54 0 -96 33t-65 94t-23 143q0 80 24 142t68 96.5t102 34.5q85 0 139 -83v286l46 6v-293q61 84 151 84q83 0 130.5 -70zM342.5 55
q34.5 26 62.5 78v271q-31 45 -62 67t-72 22q-43 0 -77 -27.5t-54 -79.5t-20 -124q0 -110 39 -171.5t103 -61.5q46 0 80.5 26zM693 89.5q38 60.5 38 174.5q0 115 -35 172t-100 57q-45 0 -78.5 -23.5t-66.5 -68.5v-266q54 -106 138 -106q66 0 104 60.5z" />
    <glyph glyph-name="dcaron" unicode="&#x10f;" horiz-adv-x="581" 
d="M471 735v-735h-40l-5 82q-24 -42 -64 -67.5t-96 -25.5q-89 0 -141.5 72.5t-52.5 197.5q0 81 24.5 142.5t70.5 96t109 34.5q92 0 149 -73v282zM360.5 55q35.5 26 64.5 78v277q-26 38 -60.5 60.5t-82.5 22.5q-73 0 -117.5 -61t-44.5 -170q0 -111 40.5 -172t111.5 -61
q53 0 88.5 26zM600 734l-35 -156l-30 4l19 158z" />
    <glyph glyph-name="uni1E13" unicode="&#x1e13;" horiz-adv-x="581" 
d="M471 735v-735h-40l-5 82q-24 -42 -64 -67.5t-96 -25.5q-89 0 -141.5 72.5t-52.5 197.5q0 81 24.5 142.5t70.5 96t109 34.5q92 0 149 -73v282zM360.5 55q35.5 26 64.5 78v277q-26 38 -60.5 60.5t-82.5 22.5q-73 0 -117.5 -61t-44.5 -170q0 -111 40.5 -172t111.5 -61
q53 0 88.5 26zM159 -174l127 104h27l128 -104l-21 -25l-120 85l-120 -85z" />
    <glyph glyph-name="dcroat" unicode="&#x111;" horiz-adv-x="587" 
d="M547 658v-38h-76v-620h-40l-5 82q-24 -42 -64 -67.5t-96 -25.5q-89 0 -141.5 72.5t-52.5 197.5q0 81 24.5 142.5t70.5 96t109 34.5q92 0 149 -73v161h-167v38h167v83l46 -6v-77h76zM360.5 55q35.5 26 64.5 78v277q-26 38 -60.5 60.5t-82.5 22.5q-73 0 -117.5 -61
t-44.5 -170q0 -111 40.5 -172t111.5 -61q53 0 88.5 26z" />
    <glyph glyph-name="uni0221" unicode="&#x221;" horiz-adv-x="678" 
d="M679 169q26 -25 26 -64q0 -52 -39.5 -84t-100.5 -32q-54 0 -90 27l-39 -78l-35 15l47 90q-14 22 -19 45q-24 -45 -64.5 -72t-98.5 -27q-89 0 -141.5 72.5t-52.5 197.5q0 81 24.5 142.5t70.5 96t109 34.5q92 0 149 -73v282l46 -6v-612q0 -16 3 -30q26 50 57.5 75.5
t77.5 25.5q44 0 70 -25zM360.5 55q35.5 26 64.5 78v277q-26 38 -60.5 60.5t-82.5 22.5q-73 0 -117.5 -61t-44.5 -170q0 -111 40.5 -172t111.5 -61q53 0 88.5 26zM635.5 50q26.5 20 26.5 55q0 24 -15 38t-40 14q-37 0 -61.5 -24t-52.5 -79q23 -24 72 -24q44 0 70.5 20z" />
    <glyph glyph-name="uni1E0B" unicode="&#x1e0b;" horiz-adv-x="581" 
d="M471 735v-735h-40l-5 82q-24 -42 -64 -67.5t-96 -25.5q-89 0 -141.5 72.5t-52.5 197.5q0 81 24.5 142.5t70.5 96t109 34.5q92 0 149 -73v282zM360.5 55q35.5 26 64.5 78v277q-26 38 -60.5 60.5t-82.5 22.5q-73 0 -117.5 -61t-44.5 -170q0 -111 40.5 -172t111.5 -61
q53 0 88.5 26zM311 911q10 -10 10 -25t-10 -25t-26 -10t-26 10t-10 25t10 25t26 10t26 -10z" />
    <glyph glyph-name="uni1E0D" unicode="&#x1e0d;" horiz-adv-x="581" 
d="M471 735v-735h-40l-5 82q-24 -42 -64 -67.5t-96 -25.5q-89 0 -141.5 72.5t-52.5 197.5q0 81 24.5 142.5t70.5 96t109 34.5q92 0 149 -73v282zM360.5 55q35.5 26 64.5 78v277q-26 38 -60.5 60.5t-82.5 22.5q-73 0 -117.5 -61t-44.5 -170q0 -111 40.5 -172t111.5 -61
q53 0 88.5 26zM274.5 -150q-9.5 10 -9.5 25t9.5 25t26.5 10q16 0 26 -10t10 -25t-10 -25t-26 -10q-17 0 -26.5 10z" />
    <glyph glyph-name="uni018D" unicode="&#x18d;" horiz-adv-x="563" 
d="M354 -154.5q30 8.5 63 29.5l25 -30q-37 -24 -75 -36t-89 -12q-72 0 -114.5 33t-42.5 84q0 42 25.5 72.5t82.5 54.5q-77 34 -119.5 95t-42.5 149q0 118 57.5 182.5t157.5 64.5q103 0 159 -65.5t56 -181.5q0 -101 -45 -158t-147 -97q-56 -21 -85 -38t-40.5 -35t-11.5 -43
q0 -35 29.5 -56t82.5 -21q44 0 74 8.5zM156 142.5q41 -56.5 110 -86.5q70 27 109 56.5t56 70t17 102.5q0 103 -42 155t-124 52q-79 0 -123 -53.5t-44 -153.5q0 -86 41 -142.5z" />
    <glyph glyph-name="uni02A4" unicode="&#x2a4;" horiz-adv-x="889" 
d="M855 3q0 -61 -25.5 -107.5t-74 -72.5t-114.5 -26q-60 0 -106.5 21.5t-85.5 63.5l29 26q36 -37 74.5 -53.5t88.5 -16.5q81 0 123.5 44.5t42.5 121.5q0 83 -45.5 119.5t-143.5 36.5h-58v38l215 283h-304v-481h-40l-5 82q-24 -42 -64 -67.5t-96 -25.5q-89 0 -141.5 72.5
t-52.5 197.5q0 81 24.5 142.5t70.5 96t109 34.5q92 0 149 -73v282l46 -6v-213h359v-37l-220 -287h13q232 0 232 -195zM360.5 55q35.5 26 64.5 78v277q-26 38 -60.5 60.5t-82.5 22.5q-73 0 -117.5 -61t-44.5 -170q0 -111 40.5 -172t111.5 -61q53 0 88.5 26z" />
    <glyph glyph-name="uni0257" unicode="&#x257;" horiz-adv-x="581" 
d="M638 708l-20 -30q-19 12 -36 18t-40 6q-71 0 -71 -87v-615h-40l-5 82q-24 -42 -64 -67.5t-96 -25.5q-89 0 -141.5 72.5t-52.5 197.5q0 81 24.5 142.5t70.5 96t109 34.5q92 0 149 -73v155q0 62 31 94.5t84 32.5q55 0 98 -33zM360.5 55q35.5 26 64.5 78v277
q-26 38 -60.5 60.5t-82.5 22.5q-73 0 -117.5 -61t-44.5 -170q0 -111 40.5 -172t111.5 -61q53 0 88.5 26z" />
    <glyph glyph-name="uni1E0F" unicode="&#x1e0f;" horiz-adv-x="581" 
d="M471 735v-735h-40l-5 82q-24 -42 -64 -67.5t-96 -25.5q-89 0 -141.5 72.5t-52.5 197.5q0 81 24.5 142.5t70.5 96t109 34.5q92 0 149 -73v282zM360.5 55q35.5 26 64.5 78v277q-26 38 -60.5 60.5t-82.5 22.5q-73 0 -117.5 -61t-44.5 -170q0 -111 40.5 -172t111.5 -61
q53 0 88.5 26zM186 -154v40h229v-40h-229z" />
    <glyph glyph-name="uni0256" unicode="&#x256;" horiz-adv-x="581" 
d="M638 -170q-43 -33 -97 -33q-53 0 -84.5 32.5t-31.5 94.5v157q-24 -41 -63.5 -66.5t-95.5 -25.5q-89 0 -141.5 72.5t-52.5 197.5q0 81 24.5 142.5t70.5 96t109 34.5q92 0 149 -73v282l46 -6v-812q0 -86 72 -86q23 0 40.5 6t34.5 17zM360.5 55q35.5 26 64.5 78v277
q-26 38 -60.5 60.5t-82.5 22.5q-73 0 -117.5 -61t-44.5 -170q0 -111 40.5 -172t111.5 -61q53 0 88.5 26z" />
    <glyph glyph-name="uni018C" unicode="&#x18c;" horiz-adv-x="581" 
d="M471 0h-40l-5 82q-24 -42 -64 -67.5t-96 -25.5q-89 0 -141.5 72.5t-52.5 197.5q0 81 24.5 142.5t70.5 96t109 34.5q92 0 149 -73v237h-236v39h282v-735zM360.5 55q35.5 26 64.5 78v277q-26 38 -60.5 60.5t-82.5 22.5q-73 0 -117.5 -61t-44.5 -170q0 -111 40.5 -172
t111.5 -61q53 0 88.5 26z" />
    <glyph glyph-name="uni01F3" unicode="&#x1f3;" horiz-adv-x="998" 
d="M471 735v-735h-40l-5 82q-24 -42 -64 -67.5t-96 -25.5q-89 0 -141.5 72.5t-52.5 197.5q0 81 24.5 142.5t70.5 96t109 34.5q92 0 149 -73v282zM360.5 55q35.5 26 64.5 78v277q-26 38 -60.5 60.5t-82.5 22.5q-73 0 -117.5 -61t-44.5 -170q0 -111 40.5 -172t111.5 -61
q53 0 88.5 26zM963 485l-298 -444h295l-5 -41h-345v36l299 445h-275v41h329v-37z" />
    <glyph glyph-name="uni02A3" unicode="&#x2a3;" horiz-adv-x="866" 
d="M832 485l-308 -444h304l-5 -41h-392l-5 82q-24 -42 -64 -67.5t-96 -25.5q-89 0 -141.5 72.5t-52.5 197.5q0 81 24.5 142.5t70.5 96t109 34.5q92 0 149 -73v282l46 -6v-213h361v-37zM360.5 55q35.5 26 64.5 78v277q-26 38 -60.5 60.5t-82.5 22.5q-73 0 -117.5 -61
t-44.5 -170q0 -111 40.5 -172t111.5 -61q53 0 88.5 26zM778 481h-307v-444z" />
    <glyph glyph-name="uni01C6" unicode="&#x1c6;" horiz-adv-x="998" 
d="M471 735v-735h-40l-5 82q-24 -42 -64 -67.5t-96 -25.5q-89 0 -141.5 72.5t-52.5 197.5q0 81 24.5 142.5t70.5 96t109 34.5q92 0 149 -73v282zM360.5 55q35.5 26 64.5 78v277q-26 38 -60.5 60.5t-82.5 22.5q-73 0 -117.5 -61t-44.5 -170q0 -111 40.5 -172t111.5 -61
q53 0 88.5 26zM963 485l-298 -444h295l-5 -41h-345v36l299 445h-275v41h329v-37zM937 739l-127 -104h-27l-128 104l21 24l121 -84l119 84z" />
    <glyph glyph-name="uni02A5" unicode="&#x2a5;" horiz-adv-x="874" 
d="M849 26.5q-45 -26.5 -141 -26.5q-3 -35 -3 -69l1 -38h-38q-1 47 2 107h-199h-40l-5 82q-24 -42 -64 -67.5t-96 -25.5q-89 0 -141.5 72.5t-52.5 197.5q0 81 24.5 142.5t70.5 96t109 34.5q92 0 149 -73v282l46 -6v-213h361v-37l-306 -444h148q7 76 39.5 118t87.5 42
q41 0 67 -24.5t26 -66.5q0 -57 -45 -83.5zM360.5 55q35.5 26 64.5 78v277q-26 38 -60.5 60.5t-82.5 22.5q-73 0 -117.5 -61t-44.5 -170q0 -111 40.5 -172t111.5 -61q53 0 88.5 26zM471 37l306 444h-306v-444zM712 40q76 -1 108 15.5t32 54.5q0 26 -14 40.5t-40 14.5
q-73 0 -86 -125z" />
    <glyph glyph-name="e" unicode="e" horiz-adv-x="534" 
d="M469 241h-354q5 -107 51 -159t120 -52q42 0 74 12.5t68 40.5l23 -30q-38 -32 -78 -48t-89 -16q-101 0 -159 71t-58 197q0 83 25 145.5t71.5 96t108.5 33.5q97 0 148 -67t51 -183q0 -21 -2 -41zM426 297q0 91 -38 143.5t-114 52.5q-68 0 -111.5 -54t-47.5 -161h311v19z
" />
    <glyph glyph-name="eacute" unicode="&#xe9;" horiz-adv-x="534" 
d="M469 241h-354q5 -107 51 -159t120 -52q42 0 74 12.5t68 40.5l23 -30q-38 -32 -78 -48t-89 -16q-101 0 -159 71t-58 197q0 83 25 145.5t71.5 96t108.5 33.5q97 0 148 -67t51 -183q0 -21 -2 -41zM426 297q0 91 -38 143.5t-114 52.5q-68 0 -111.5 -54t-47.5 -161h311v19z
M370 732l-190 -84l-15 28l184 100z" />
    <glyph glyph-name="ebreve" unicode="&#x115;" horiz-adv-x="534" 
d="M469 241h-354q5 -107 51 -159t120 -52q42 0 74 12.5t68 40.5l23 -30q-38 -32 -78 -48t-89 -16q-101 0 -159 71t-58 197q0 83 25 145.5t71.5 96t108.5 33.5q97 0 148 -67t51 -183q0 -21 -2 -41zM426 297q0 91 -38 143.5t-114 52.5q-68 0 -111.5 -54t-47.5 -161h311v19z
M192.5 684q-33.5 28 -40.5 75l32 7q20 -70 91 -70t91 70l32 -7q-7 -46 -40.5 -74.5t-82.5 -28.5t-82.5 28z" />
    <glyph glyph-name="ecaron" unicode="&#x11b;" horiz-adv-x="534" 
d="M469 241h-354q5 -107 51 -159t120 -52q42 0 74 12.5t68 40.5l23 -30q-38 -32 -78 -48t-89 -16q-101 0 -159 71t-58 197q0 83 25 145.5t71.5 96t108.5 33.5q97 0 148 -67t51 -183q0 -21 -2 -41zM426 297q0 91 -38 143.5t-114 52.5q-68 0 -111.5 -54t-47.5 -161h311v19z
M416 739l-127 -104h-27l-128 104l21 24l121 -84l119 84z" />
    <glyph glyph-name="uni0229" unicode="&#x229;" horiz-adv-x="534" 
d="M469 241h-354q5 -107 51 -159t120 -52q42 0 74 12.5t68 40.5l23 -30q-35 -29 -71 -45t-80 -18v-57q92 -7 92 -73q0 -38 -28.5 -60t-70.5 -22q-43 0 -76 20l16 30q28 -15 59 -15q25 0 41 12t16 35t-21 34t-68 11l7 85q-93 6 -146.5 76.5t-53.5 190.5q0 83 25 145.5
t71.5 96t108.5 33.5q97 0 148 -67t51 -183q0 -21 -2 -41zM426 297q0 91 -38 143.5t-114 52.5q-68 0 -111.5 -54t-47.5 -161h311v19z" />
    <glyph glyph-name="ecircumflex" unicode="&#xea;" horiz-adv-x="534" 
d="M469 241h-354q5 -107 51 -159t120 -52q42 0 74 12.5t68 40.5l23 -30q-38 -32 -78 -48t-89 -16q-101 0 -159 71t-58 197q0 83 25 145.5t71.5 96t108.5 33.5q97 0 148 -67t51 -183q0 -21 -2 -41zM426 297q0 91 -38 143.5t-114 52.5q-68 0 -111.5 -54t-47.5 -161h311v19z
M134 672l127 103h27l128 -103l-21 -25l-120 84l-120 -84z" />
    <glyph glyph-name="uni1EBF" unicode="&#x1ebf;" horiz-adv-x="534" 
d="M383 685l-22 20l105 128l32 -30zM153 586l-21 25l128 99h27l127 -99l-21 -25l-119 80zM420 465q51 -67 51 -183q0 -21 -2 -41h-354q5 -107 51 -159t120 -52q42 0 74 12.5t68 40.5l23 -30q-38 -32 -78 -48t-89 -16q-101 0 -159 71t-58 197q0 83 25 145.5t71.5 96
t108.5 33.5q97 0 148 -67zM426 297q0 91 -38 143.5t-114 52.5q-68 0 -111.5 -54t-47.5 -161h311v19z" />
    <glyph glyph-name="uni1EC7" unicode="&#x1ec7;" horiz-adv-x="534" 
d="M469 241h-354q5 -107 51 -159t120 -52q42 0 74 12.5t68 40.5l23 -30q-38 -32 -78 -48t-89 -16q-101 0 -159 71t-58 197q0 83 25 145.5t71.5 96t108.5 33.5q97 0 148 -67t51 -183q0 -21 -2 -41zM426 297q0 91 -38 143.5t-114 52.5q-68 0 -111.5 -54t-47.5 -161h311v19z
M134 672l127 103h27l128 -103l-21 -25l-120 84l-120 -84zM261.5 -150q-9.5 10 -9.5 25t9.5 25t26.5 10q16 0 26 -10t10 -25t-10 -25t-26 -10q-17 0 -26.5 10z" />
    <glyph glyph-name="uni1EC1" unicode="&#x1ec1;" horiz-adv-x="534" 
d="M170 685l-114 118l32 30l104 -128zM133 611l128 99h27l127 -99l-21 -25l-119 80l-121 -80zM469 241h-354q5 -107 51 -159t120 -52q42 0 74 12.5t68 40.5l23 -30q-38 -32 -78 -48t-89 -16q-101 0 -159 71t-58 197q0 83 25 145.5t71.5 96t108.5 33.5q97 0 148 -67t51 -183
q0 -21 -2 -41zM426 297q0 91 -38 143.5t-114 52.5q-68 0 -111.5 -54t-47.5 -161h311v19z" />
    <glyph glyph-name="uni1EC3" unicode="&#x1ec3;" horiz-adv-x="534" 
d="M335 834l-14 30q36 21 77 21q40 0 63.5 -20.5t23.5 -55.5q0 -65 -73 -74v-56h-40v80q33 2 51 12.5t18 35.5q0 20 -12.5 31t-35.5 11q-31 0 -58 -15zM153 586l-21 25l128 99h27l127 -99l-21 -25l-119 80zM420 465q51 -67 51 -183q0 -21 -2 -41h-354q5 -107 51 -159
t120 -52q42 0 74 12.5t68 40.5l23 -30q-38 -32 -78 -48t-89 -16q-101 0 -159 71t-58 197q0 83 25 145.5t71.5 96t108.5 33.5q97 0 148 -67zM426 297q0 91 -38 143.5t-114 52.5q-68 0 -111.5 -54t-47.5 -161h311v19z" />
    <glyph glyph-name="uni1EC5" unicode="&#x1ec5;" horiz-adv-x="534" 
d="M186.5 775.5q-12.5 -8.5 -27.5 -28.5l-29 15q37 60 86 60q15 0 28 -5.5t33 -17.5q18 -10 30.5 -15.5t25.5 -5.5q16 0 28.5 9.5t28.5 33.5l29 -15q-32 -66 -86 -66q-18 0 -34 6.5t-36 18.5q-30 19 -47 19t-29.5 -8.5zM288 700l127 -99l-21 -25l-119 80l-121 -80l-21 25
l128 99h27zM469 241h-354q5 -107 51 -159t120 -52q42 0 74 12.5t68 40.5l23 -30q-38 -32 -78 -48t-89 -16q-101 0 -159 71t-58 197q0 83 25 145.5t71.5 96t108.5 33.5q97 0 148 -67t51 -183q0 -21 -2 -41zM426 297q0 91 -38 143.5t-114 52.5q-68 0 -111.5 -54t-47.5 -161
h311v19z" />
    <glyph glyph-name="uni0205" unicode="&#x205;" horiz-adv-x="534" 
d="M469 241h-354q5 -107 51 -159t120 -52q42 0 74 12.5t68 40.5l23 -30q-38 -32 -78 -48t-89 -16q-101 0 -159 71t-58 197q0 83 25 145.5t71.5 96t108.5 33.5q97 0 148 -67t51 -183q0 -21 -2 -41zM426 297q0 91 -38 143.5t-114 52.5q-68 0 -111.5 -54t-47.5 -161h311v19z
M245 660l-31 -15l-88 136l43 23zM359 664l-31 -15l-80 132l43 22z" />
    <glyph glyph-name="edieresis" unicode="&#xeb;" horiz-adv-x="534" 
d="M469 241h-354q5 -107 51 -159t120 -52q42 0 74 12.5t68 40.5l23 -30q-38 -32 -78 -48t-89 -16q-101 0 -159 71t-58 197q0 83 25 145.5t71.5 96t108.5 33.5q97 0 148 -67t51 -183q0 -21 -2 -41zM426 297q0 91 -38 143.5t-114 52.5q-68 0 -111.5 -54t-47.5 -161h311v19z
M208.5 722.5q9.5 -9.5 9.5 -23.5t-9.5 -23.5t-24.5 -9.5t-24.5 9.5t-9.5 23.5t9.5 23.5t24.5 9.5t24.5 -9.5zM389.5 722.5q9.5 -9.5 9.5 -23.5t-9.5 -23.5t-23.5 -9.5q-15 0 -24.5 9.5t-9.5 23.5t9.5 23.5t24.5 9.5q14 0 23.5 -9.5z" />
    <glyph glyph-name="edotaccent" unicode="&#x117;" horiz-adv-x="534" 
d="M469 241h-354q5 -107 51 -159t120 -52q42 0 74 12.5t68 40.5l23 -30q-38 -32 -78 -48t-89 -16q-101 0 -159 71t-58 197q0 83 25 145.5t71.5 96t108.5 33.5q97 0 148 -67t51 -183q0 -21 -2 -41zM426 297q0 91 -38 143.5t-114 52.5q-68 0 -111.5 -54t-47.5 -161h311v19z
M301 734q10 -10 10 -25t-10 -25t-26 -10t-26 10t-10 25t10 25t26 10t26 -10z" />
    <glyph glyph-name="uni1EB9" unicode="&#x1eb9;" horiz-adv-x="534" 
d="M469 241h-354q5 -107 51 -159t120 -52q42 0 74 12.5t68 40.5l23 -30q-38 -32 -78 -48t-89 -16q-101 0 -159 71t-58 197q0 83 25 145.5t71.5 96t108.5 33.5q97 0 148 -67t51 -183q0 -21 -2 -41zM426 297q0 91 -38 143.5t-114 52.5q-68 0 -111.5 -54t-47.5 -161h311v19z
M261.5 -150q-9.5 10 -9.5 25t9.5 25t26.5 10q16 0 26 -10t10 -25t-10 -25t-26 -10q-17 0 -26.5 10z" />
    <glyph glyph-name="egrave" unicode="&#xe8;" horiz-adv-x="534" 
d="M469 241h-354q5 -107 51 -159t120 -52q42 0 74 12.5t68 40.5l23 -30q-38 -32 -78 -48t-89 -16q-101 0 -159 71t-58 197q0 83 25 145.5t71.5 96t108.5 33.5q97 0 148 -67t51 -183q0 -21 -2 -41zM426 297q0 91 -38 143.5t-114 52.5q-68 0 -111.5 -54t-47.5 -161h311v19z
M380 676l-15 -28l-190 84l21 44z" />
    <glyph glyph-name="uni1EBB" unicode="&#x1ebb;" horiz-adv-x="534" 
d="M469 241h-354q5 -107 51 -159t120 -52q42 0 74 12.5t68 40.5l23 -30q-38 -32 -78 -48t-89 -16q-101 0 -159 71t-58 197q0 83 25 145.5t71.5 96t108.5 33.5q97 0 148 -67t51 -183q0 -21 -2 -41zM426 297q0 91 -38 143.5t-114 52.5q-68 0 -111.5 -54t-47.5 -161h311v19z
M252 698q33 2 51 12.5t18 35.5q0 20 -12.5 31t-35.5 11q-31 0 -58 -15l-14 30q36 21 77 21q40 0 63.5 -20.5t23.5 -55.5q0 -65 -73 -74v-56h-40v80z" />
    <glyph glyph-name="uni0207" unicode="&#x207;" horiz-adv-x="534" 
d="M469 241h-354q5 -107 51 -159t120 -52q42 0 74 12.5t68 40.5l23 -30q-38 -32 -78 -48t-89 -16q-101 0 -159 71t-58 197q0 83 25 145.5t71.5 96t108.5 33.5q97 0 148 -67t51 -183q0 -21 -2 -41zM426 297q0 91 -38 143.5t-114 52.5q-68 0 -111.5 -54t-47.5 -161h311v19z
M357.5 708q33.5 -28 40.5 -74l-32 -7q-10 34 -33 52t-58 18t-58 -18t-33 -52l-32 7q7 46 40.5 74t82.5 28t82.5 -28z" />
    <glyph glyph-name="emacron" unicode="&#x113;" horiz-adv-x="534" 
d="M469 241h-354q5 -107 51 -159t120 -52q42 0 74 12.5t68 40.5l23 -30q-38 -32 -78 -48t-89 -16q-101 0 -159 71t-58 197q0 83 25 145.5t71.5 96t108.5 33.5q97 0 148 -67t51 -183q0 -21 -2 -41zM426 297q0 91 -38 143.5t-114 52.5q-68 0 -111.5 -54t-47.5 -161h311v19z
M161 679v39h229v-39h-229z" />
    <glyph glyph-name="eogonek" unicode="&#x119;" horiz-adv-x="534" 
d="M469 241h-354q5 -107 51 -159t120 -52q42 0 74 12.5t68 40.5l23 -30q-43 -36 -85 -50q-63 -29 -90 -55t-27 -62q0 -25 17 -39t50 -14q23 0 56 6l-5 -40q-35 -7 -56 -7q-52 0 -79.5 25t-27.5 64q0 66 82 108h-2q-101 0 -159 71t-58 197q0 83 25 145.5t71.5 96t108.5 33.5
q97 0 148 -67t51 -183q0 -21 -2 -41zM426 297q0 91 -38 143.5t-114 52.5q-68 0 -111.5 -54t-47.5 -161h311v19z" />
    <glyph glyph-name="uni025B" unicode="&#x25b;" horiz-adv-x="457" 
d="M416 486l-24 -30q-29 18 -59.5 27.5t-70.5 9.5q-60 0 -93.5 -26.5t-33.5 -73.5q0 -44 35.5 -72.5t94.5 -28.5h59l-6 -38h-57q-73 0 -109.5 -28t-36.5 -85q0 -53 38.5 -82.5t103.5 -29.5q49 0 82 13t68 41l24 -31q-36 -30 -78.5 -46.5t-97.5 -16.5q-84 0 -136 40t-52 111
q0 62 35.5 95.5t95.5 40.5q-110 24 -110 119q0 63 47.5 100t123.5 37q90 0 157 -46z" />
    <glyph glyph-name="uni029A" unicode="&#x29a;" horiz-adv-x="554" 
d="M120 31q-53 42 -53 119q0 61 35 91.5t102 36.5q-111 22 -111 115q0 63 47 101t122 38q105 0 165 -72.5t60 -199.5t-58.5 -199t-166.5 -72q-89 0 -142 42zM393.5 88q44.5 59 44.5 172q0 114 -46 173.5t-130 59.5q-57 0 -89.5 -27.5t-32.5 -72.5q0 -47 36.5 -73.5
t102.5 -26.5h25l4 -38h-37q-76 0 -116 -24t-40 -81q0 -63 39 -92t109 -29q86 0 130.5 59z" />
    <glyph glyph-name="uni025C" unicode="&#x25c;" horiz-adv-x="476" 
d="M337 495.5q46 -36.5 46 -99.5q0 -96 -110 -118q66 -6 101.5 -36.5t35.5 -91.5q0 -78 -53 -119.5t-139 -41.5q-112 0 -192 69l26 29q34 -29 72.5 -43.5t91.5 -14.5q67 0 106 29t39 92q0 57 -41 81t-118 24h-59l3 38h49q67 0 104 26.5t37 75.5q0 46 -32 72t-88 26
q-46 0 -78.5 -10.5t-71.5 -34.5l-23 30q40 27 81.5 40.5t94.5 13.5q72 0 118 -36.5z" />
    <glyph glyph-name="uni025E" unicode="&#x25e;" horiz-adv-x="553" 
d="M125 61q-58 72 -58 199q0 128 59.5 200t164.5 72q75 0 122 -38t47 -101q0 -93 -110 -115q66 -6 101.5 -36.5t35.5 -91.5q0 -77 -53 -119t-143 -42q-108 0 -166 72zM399.5 58.5q39.5 29.5 39.5 91.5q0 56 -40.5 80.5t-116.5 24.5h-37l4 38h25q66 0 102.5 26.5t36.5 73.5
q0 45 -32 72.5t-90 27.5q-84 0 -130 -59.5t-46 -173.5q0 -113 44.5 -172t131.5 -59q69 0 108.5 29.5z" />
    <glyph glyph-name="uni025D" unicode="&#x25d;" horiz-adv-x="645" 
d="M673 359q-45 -33 -99 -33q-53 0 -83 31t-30 90v34l-85 -41q7 -20 7 -44q0 -96 -110 -118q66 -6 101.5 -36.5t35.5 -91.5q0 -78 -53 -119.5t-139 -41.5q-112 0 -192 69l26 29q34 -29 72.5 -43.5t91.5 -14.5q67 0 106 29t39 92q0 57 -41 81t-118 24h-59l3 38h49
q67 0 104 26.5t37 75.5q0 46 -32 72t-88 26q-46 0 -78.5 -10.5t-71.5 -34.5l-23 30q40 27 81.5 40.5t94.5 13.5q46 0 82.5 -15.5t57.5 -44.5l102 50h44v-71q0 -45 19 -65.5t52 -20.5q23 0 40 6t36 18z" />
    <glyph glyph-name="uni0258" unicode="&#x258;" horiz-adv-x="534" 
d="M416 461q52 -71 52 -204q0 -125 -58.5 -196.5t-159.5 -71.5q-49 0 -89 16t-78 48l23 30q37 -28 69 -40.5t76 -12.5q74 0 118.5 52t49.5 159h-354q-2 20 -2 41q0 115 52.5 182.5t149.5 67.5q99 0 151 -71zM109 278h310q-3 114 -43 164.5t-112 50.5q-76 0 -115.5 -53.5
t-39.5 -142.5v-19z" />
    <glyph glyph-name="uni0283" unicode="&#x283;" horiz-adv-x="275" 
d="M328 708l-21 -30q-18 12 -35 18t-41 6q-71 0 -71 -87v-691q0 -62 -31.5 -94.5t-84.5 -32.5q-54 0 -97 33l20 30q19 -12 35.5 -17.5t40.5 -5.5q71 0 71 86v691q0 62 31.5 94.5t84.5 32.5t98 -33z" />
    <glyph glyph-name="uni0286" unicode="&#x286;" horiz-adv-x="285" 
d="M170 615v-93l1 -542q56 -15 103 -38l-14 -29q-47 21 -90 32q-5 -73 -40 -110.5t-101 -37.5q-51 0 -81.5 26.5t-30.5 67.5q0 48 37.5 76t98.5 28q33 0 71 -6v625q0 62 31.5 94.5t84.5 32.5t98 -33l-21 -30q-18 12 -35 18t-41 6q-71 0 -71 -87zM98.5 -137.5
q23.5 28.5 25.5 91.5q-36 6 -71 6q-47 0 -71 -17.5t-24 -49.5q0 -27 18.5 -43t51.5 -16q47 0 70.5 28.5z" />
    <glyph glyph-name="uni01AA" unicode="&#x1aa;" horiz-adv-x="281" 
d="M334 -170q-45 -33 -98 -33t-84.5 32.5t-31.5 94.5v598q-26 -14 -61 -14q-48 0 -78.5 31t-30.5 83q0 53 30.5 86t78.5 33q50 0 78.5 -31.5t28.5 -83.5v-703q0 -86 72 -86q23 0 40.5 6t34.5 17zM120 559v68q0 36 -15.5 55.5t-44.5 19.5q-30 0 -47 -21t-17 -57q0 -39 18 -58
t49 -19q30 0 57 12z" />
    <glyph glyph-name="uni0285" unicode="&#x285;" horiz-adv-x="388" 
d="M152 472.5q-19 20.5 -52 20.5q-24 0 -41 -6t-35 -18l-20 31q42 32 98 32q53 0 84 -32t31 -95v-212h-46v214q0 45 -19 65.5zM384 22q-43 -33 -97 -33q-53 0 -84.5 32.5t-31.5 95.5v76h46v-78q0 -46 19.5 -66t51.5 -20q24 0 41.5 6t34.5 17z" />
    <glyph glyph-name="uni0247" unicode="&#x247;" horiz-adv-x="534" 
d="M276 241l-55 -199q30 -12 65 -12q42 0 74 12.5t68 40.5l23 -30q-38 -32 -78 -48t-89 -16q-41 0 -74 12l-20 -71l-27 7l21 76q-56 29 -86.5 91.5t-30.5 152.5q0 83 25 145.5t71.5 96t108.5 33.5q29 0 53 -6l18 65l26 -8l-18 -65q60 -24 90 -85t30 -151q0 -21 -2 -41h-193z
M162.5 439q-43.5 -54 -47.5 -161h142l57 210q-20 5 -40 5q-68 0 -111.5 -54zM405 412q-21 47 -64 67l-55 -201h140v19q0 68 -21 115zM246 241h-131q7 -136 80 -186z" />
    <glyph glyph-name="uni1EBD" unicode="&#x1ebd;" horiz-adv-x="534" 
d="M469 241h-354q5 -107 51 -159t120 -52q42 0 74 12.5t68 40.5l23 -30q-38 -32 -78 -48t-89 -16q-101 0 -159 71t-58 197q0 83 25 145.5t71.5 96t108.5 33.5q97 0 148 -67t51 -183q0 -21 -2 -41zM426 297q0 91 -38 143.5t-114 52.5q-68 0 -111.5 -54t-47.5 -161h311v19z
M300 676.5q-16 6.5 -36 18.5q-30 19 -47 19t-29.5 -8.5t-27.5 -28.5l-29 15q37 60 86 60q15 0 28 -5.5t33 -17.5q18 -10 30.5 -15.5t25.5 -5.5q16 0 28.5 9.5t28.5 33.5l29 -15q-32 -66 -86 -66q-18 0 -34 6.5z" />
    <glyph glyph-name="uni01DD" unicode="&#x1dd;" horiz-adv-x="540" 
d="M420 463.5q53 -68.5 53 -199.5q0 -135 -56 -205t-152 -70q-94 0 -148 68.5t-54 187.5q0 16 2 36h360q-3 106 -44.5 158.5t-112.5 52.5q-42 0 -76 -12t-71 -38l-23 32q75 58 170 58q99 0 152 -68.5zM425 243h-316v-5q0 -100 41 -154.5t115 -54.5q156 0 160 214z" />
    <glyph glyph-name="uni0292" unicode="&#x292;" horiz-adv-x="454" 
d="M421 3q0 -60 -26 -107t-74.5 -73t-113.5 -26q-61 0 -107.5 21.5t-84.5 63.5l29 26q36 -37 74.5 -53.5t87.5 -16.5q81 0 123.5 44.5t42.5 121.5q0 83 -45.5 119.5t-143.5 36.5h-58v38l216 283h-306v41h361v-37l-221 -287h14q232 0 232 -195z" />
    <glyph glyph-name="uni01EF" unicode="&#x1ef;" horiz-adv-x="454" 
d="M421 3q0 -60 -26 -107t-74.5 -73t-113.5 -26q-61 0 -107.5 21.5t-84.5 63.5l29 26q36 -37 74.5 -53.5t87.5 -16.5q81 0 123.5 44.5t42.5 121.5q0 83 -45.5 119.5t-143.5 36.5h-58v38l216 283h-306v41h361v-37l-221 -287h14q232 0 232 -195zM356 739l-127 -104h-27
l-128 104l21 24l121 -84l119 84z" />
    <glyph glyph-name="uni0293" unicode="&#x293;" horiz-adv-x="454" 
d="M386 -110q-35 -50 -101 -74l26 -56l-35 -15l-28 61q-38 -9 -84 -9q-87 0 -131.5 31t-44.5 87q0 45 29.5 74.5t78.5 29.5q55 0 94 -36t79 -130q52 18 78 57.5t26 96.5q0 80 -46 116.5t-144 36.5h-58v38l216 283h-306v41h361v-37l-221 -287h15q116 0 173.5 -49t57.5 -142
q0 -67 -35 -117zM66 -144q35 -18 99 -18q41 0 66 5q-35 80 -64.5 109.5t-68.5 29.5q-31 0 -49 -17.5t-18 -48.5q0 -42 35 -60z" />
    <glyph glyph-name="uni01B9" unicode="&#x1b9;" horiz-adv-x="454" 
d="M439 -118q-38 -42 -85.5 -63.5t-110.5 -21.5t-110.5 25.5t-73 70.5t-25.5 102q0 94 58.5 148.5t175.5 54.5h12l-222 287v37h361v-41h-305l215 -283v-38h-58q-189 0 -189 -165q0 -71 42 -114t118 -43q53 0 93 16.5t76 52.5z" />
    <glyph glyph-name="uni01BA" unicode="&#x1ba;" horiz-adv-x="450" 
d="M60.5 -150.5q-27.5 28.5 -27.5 67.5q0 46 42.5 72.5t130.5 37.5q60 7 95 19t51.5 35t16.5 62q0 88 -108 88h-146v39l212 211h-295v41h356v-37l-221 -215h97q72 0 113 -33.5t41 -93.5q0 -72 -48.5 -106.5t-146.5 -47.5q-77 -10 -109.5 -26t-32.5 -48q0 -27 18 -46t60 -40
l-16 -32q-55 24 -82.5 52.5z" />
    <glyph glyph-name="f" unicode="f" horiz-adv-x="316" 
d="M160 610v-88h142l-7 -39h-135v-483h-46v483h-89v39h89v90q0 60 37.5 94.5t101.5 34.5q62 0 120 -28l-17 -35q-52 23 -101 23q-95 0 -95 -91z" />
    <glyph glyph-name="uni1E1F" unicode="&#x1e1f;" horiz-adv-x="316" 
d="M160 610v-88h142l-7 -39h-135v-483h-46v483h-89v39h89v90q0 60 37.5 94.5t101.5 34.5q62 0 120 -28l-17 -35q-52 23 -101 23q-95 0 -95 -91zM279 911q10 -10 10 -25t-10 -25t-26 -10t-26 10t-10 25t10 25t26 10t26 -10z" />
    <glyph glyph-name="uni02A9" unicode="&#x2a9;" horiz-adv-x="865" 
d="M724 490.5q36 -41.5 36 -118.5v-448q0 -62 -31.5 -94.5t-84.5 -32.5q-54 0 -97 33l20 30q17 -11 34.5 -17t41.5 -6q32 0 51.5 20t19.5 66v443q0 66 -26 97t-78 31q-53 0 -94 -29t-78 -84v-381h-46v483h-232v-483h-46v483h-89v39h89v90q0 60 37.5 94.5t101.5 34.5
q62 0 120 -28l-17 -35q-52 23 -101 23q-95 0 -95 -91v-88h232h40l4 -93q74 103 181 103q71 0 107 -41.5z" />
    <glyph glyph-name="g" unicode="g" horiz-adv-x="497" 
d="M486 516q-45 -14 -142 -15q88 -42 88 -146q0 -77 -50 -123.5t-135 -46.5q-38 0 -69 11q-21 -11 -32.5 -28t-11.5 -36q0 -58 88 -58h86q75 0 119 -35.5t44 -93.5q0 -71 -55 -109.5t-165 -38.5q-114 0 -164.5 34.5t-50.5 112.5h44q1 -40 17 -63t52.5 -33.5t101.5 -10.5
q173 0 173 105q0 43 -32.5 67t-90.5 24h-85q-61 0 -94 25.5t-33 64.5q0 51 57 87q-45 23 -66 59t-21 89q0 78 51 126t136 48q98 -1 140.5 6t84.5 24zM141.5 458q-35.5 -37 -35.5 -100q0 -65 38 -101t102 -36q67 0 103 35t36 100t-35 102t-103 37q-70 0 -105.5 -37z" />
    <glyph glyph-name="uni01F5" unicode="&#x1f5;" horiz-adv-x="497" 
d="M486 516q-45 -14 -142 -15q88 -42 88 -146q0 -77 -50 -123.5t-135 -46.5q-38 0 -69 11q-21 -11 -32.5 -28t-11.5 -36q0 -58 88 -58h86q75 0 119 -35.5t44 -93.5q0 -71 -55 -109.5t-165 -38.5q-114 0 -164.5 34.5t-50.5 112.5h44q1 -40 17 -63t52.5 -33.5t101.5 -10.5
q173 0 173 105q0 43 -32.5 67t-90.5 24h-85q-61 0 -94 25.5t-33 64.5q0 51 57 87q-45 23 -66 59t-21 89q0 78 51 126t136 48q98 -1 140.5 6t84.5 24zM141.5 458q-35.5 -37 -35.5 -100q0 -65 38 -101t102 -36q67 0 103 35t36 100t-35 102t-103 37q-70 0 -105.5 -37zM344 732
l-190 -84l-15 28l184 100z" />
    <glyph glyph-name="uni0263" unicode="&#x263;" horiz-adv-x="459" 
d="M256 50q30 -57 44.5 -95.5t14.5 -73.5q0 -38 -22.5 -61t-62.5 -23q-39 0 -61.5 23t-22.5 61q0 32 14.5 70.5t44.5 97.5l-188 473h50l163 -438l162 438h50zM261.5 -61q-9.5 28 -31.5 77q-23 -53 -32 -79t-9 -54q0 -23 10.5 -35.5t30.5 -12.5t30.5 12.5t10.5 35.5
q0 28 -9.5 56z" />
    <glyph glyph-name="gbreve" unicode="&#x11f;" horiz-adv-x="497" 
d="M486 516q-45 -14 -142 -15q88 -42 88 -146q0 -77 -50 -123.5t-135 -46.5q-38 0 -69 11q-21 -11 -32.5 -28t-11.5 -36q0 -58 88 -58h86q75 0 119 -35.5t44 -93.5q0 -71 -55 -109.5t-165 -38.5q-114 0 -164.5 34.5t-50.5 112.5h44q1 -40 17 -63t52.5 -33.5t101.5 -10.5
q173 0 173 105q0 43 -32.5 67t-90.5 24h-85q-61 0 -94 25.5t-33 64.5q0 51 57 87q-45 23 -66 59t-21 89q0 78 51 126t136 48q98 -1 140.5 6t84.5 24zM141.5 458q-35.5 -37 -35.5 -100q0 -65 38 -101t102 -36q67 0 103 35t36 100t-35 102t-103 37q-70 0 -105.5 -37z
M166.5 684q-33.5 28 -40.5 75l32 7q20 -70 91 -70t91 70l32 -7q-7 -46 -40.5 -74.5t-82.5 -28.5t-82.5 28z" />
    <glyph glyph-name="gcaron" unicode="&#x1e7;" horiz-adv-x="497" 
d="M486 516q-45 -14 -142 -15q88 -42 88 -146q0 -77 -50 -123.5t-135 -46.5q-38 0 -69 11q-21 -11 -32.5 -28t-11.5 -36q0 -58 88 -58h86q75 0 119 -35.5t44 -93.5q0 -71 -55 -109.5t-165 -38.5q-114 0 -164.5 34.5t-50.5 112.5h44q1 -40 17 -63t52.5 -33.5t101.5 -10.5
q173 0 173 105q0 43 -32.5 67t-90.5 24h-85q-61 0 -94 25.5t-33 64.5q0 51 57 87q-45 23 -66 59t-21 89q0 78 51 126t136 48q98 -1 140.5 6t84.5 24zM141.5 458q-35.5 -37 -35.5 -100q0 -65 38 -101t102 -36q67 0 103 35t36 100t-35 102t-103 37q-70 0 -105.5 -37zM389 739
l-127 -104h-27l-128 104l21 24l121 -84l119 84z" />
    <glyph glyph-name="gcircumflex" unicode="&#x11d;" horiz-adv-x="497" 
d="M486 516q-45 -14 -142 -15q88 -42 88 -146q0 -77 -50 -123.5t-135 -46.5q-38 0 -69 11q-21 -11 -32.5 -28t-11.5 -36q0 -58 88 -58h86q75 0 119 -35.5t44 -93.5q0 -71 -55 -109.5t-165 -38.5q-114 0 -164.5 34.5t-50.5 112.5h44q1 -40 17 -63t52.5 -33.5t101.5 -10.5
q173 0 173 105q0 43 -32.5 67t-90.5 24h-85q-61 0 -94 25.5t-33 64.5q0 51 57 87q-45 23 -66 59t-21 89q0 78 51 126t136 48q98 -1 140.5 6t84.5 24zM141.5 458q-35.5 -37 -35.5 -100q0 -65 38 -101t102 -36q67 0 103 35t36 100t-35 102t-103 37q-70 0 -105.5 -37zM107 672
l127 103h27l128 -103l-21 -25l-120 84l-120 -84z" />
    <glyph glyph-name="gcommaaccent" unicode="&#x123;" horiz-adv-x="497" 
d="M486 516q-45 -14 -142 -15q88 -42 88 -146q0 -77 -50 -123.5t-135 -46.5q-38 0 -69 11q-21 -11 -32.5 -28t-11.5 -36q0 -58 88 -58h86q75 0 119 -35.5t44 -93.5q0 -71 -55 -109.5t-165 -38.5q-114 0 -164.5 34.5t-50.5 112.5h44q1 -40 17 -63t52.5 -33.5t101.5 -10.5
q173 0 173 105q0 43 -32.5 67t-90.5 24h-85q-61 0 -94 25.5t-33 64.5q0 51 57 87q-45 23 -66 59t-21 89q0 78 51 126t136 48q98 -1 140.5 6t84.5 24zM141.5 458q-35.5 -37 -35.5 -100q0 -65 38 -101t102 -36q67 0 103 35t36 100t-35 102t-103 37q-70 0 -105.5 -37z
M220.5 601q-10.5 11 -10.5 27q0 11 4 23t17 39l40 86h29l-33 -114q21 -11 21 -34q0 -16 -11 -27t-28 -11q-18 0 -28.5 11z" />
    <glyph glyph-name="gdotaccent" unicode="&#x121;" horiz-adv-x="497" 
d="M486 516q-45 -14 -142 -15q88 -42 88 -146q0 -77 -50 -123.5t-135 -46.5q-38 0 -69 11q-21 -11 -32.5 -28t-11.5 -36q0 -58 88 -58h86q75 0 119 -35.5t44 -93.5q0 -71 -55 -109.5t-165 -38.5q-114 0 -164.5 34.5t-50.5 112.5h44q1 -40 17 -63t52.5 -33.5t101.5 -10.5
q173 0 173 105q0 43 -32.5 67t-90.5 24h-85q-61 0 -94 25.5t-33 64.5q0 51 57 87q-45 23 -66 59t-21 89q0 78 51 126t136 48q98 -1 140.5 6t84.5 24zM141.5 458q-35.5 -37 -35.5 -100q0 -65 38 -101t102 -36q67 0 103 35t36 100t-35 102t-103 37q-70 0 -105.5 -37zM275 734
q10 -10 10 -25t-10 -25t-26 -10t-26 10t-10 25t10 25t26 10t26 -10z" />
    <glyph glyph-name="uni0260" unicode="&#x260;" horiz-adv-x="581" 
d="M638 708l-20 -30q-19 12 -36 18t-40 6q-71 0 -71 -87v-619q0 -97 -45.5 -148t-146.5 -51q-83 0 -145 37l17 32q27 -13 56.5 -21t69.5 -8q82 0 115 37.5t33 119.5v107q-24 -41 -63.5 -66.5t-95.5 -25.5q-59 0 -103 32t-67.5 91t-23.5 137q0 76 24.5 135.5t70.5 93.5
t109 34q92 0 149 -73v155q0 62 31 94.5t84 32.5q55 0 98 -33zM360.5 75q35.5 26 64.5 78v257q-26 38 -60.5 60.5t-82.5 22.5t-84.5 -26.5t-57 -76.5t-20.5 -118q0 -105 40.5 -164t111.5 -59q53 0 88.5 26z" />
    <glyph glyph-name="uni01BE" unicode="&#x1be;" horiz-adv-x="497" 
d="M431 207q0 -62 -25.5 -110t-72.5 -75.5t-111 -27.5q-57 0 -101 20t-87 60l27 28q37 -33 74.5 -50t85.5 -17q77 0 119 46.5t42 125.5q0 81 -40.5 120t-108.5 55l-67 16v164h-69v38h69v135l46 6v-141h118v-38h-118v-136l34 -7q185 -40 185 -212z" />
    <glyph glyph-name="uni0294" unicode="&#x294;" horiz-adv-x="431" 
d="M133 337l64 17q68 19 108 56.5t40 117.5q0 79 -41.5 125.5t-118.5 46.5q-48 0 -85.5 -16.5t-74.5 -49.5l-28 27q44 40 88.5 60t101.5 20q96 0 151.5 -59t55.5 -154q0 -97 -51 -143t-133 -68l-31 -8v-309h-46v337z" />
    <glyph glyph-name="uni0296" unicode="&#x296;" horiz-adv-x="497" 
d="M212 741v-315l34 -7q185 -40 185 -212q0 -62 -25.5 -110t-72.5 -75.5t-111 -27.5q-57 0 -101 20t-87 60l27 28q37 -33 74.5 -50t85.5 -17q77 0 119 46.5t42 125.5q0 81 -40.5 120t-108.5 55l-67 16v337z" />
    <glyph glyph-name="uni0295" unicode="&#x295;" horiz-adv-x="431" 
d="M251 0v309l-30 8q-83 22 -134 68t-51 143q0 62 26 110.5t74.5 75.5t112.5 27q55 0 98 -20t86 -60l-27 -27q-38 33 -74 49.5t-81 16.5q-78 0 -122 -46.5t-44 -125.5q0 -80 40.5 -118t108.5 -56l64 -17v-337h-47z" />
    <glyph glyph-name="uni0242" unicode="&#x242;" horiz-adv-x="423" 
d="M130 181l72 19q125 32 125 150q0 63 -39 102t-104 39q-46 0 -80 -15t-69 -42l-26 29q38 34 79.5 51.5t97.5 17.5t99 -23.5t67 -64.5t24 -93q0 -82 -45 -126t-115 -61l-40 -10v-154h-46v181z" />
    <glyph glyph-name="uni02A1" unicode="&#x2a1;" horiz-adv-x="431" 
d="M179 309v-101h117v-39h-117v-169h-46v169h-68v39h68v129l64 17q68 19 108 56.5t40 117.5q0 79 -41.5 125.5t-118.5 46.5q-48 0 -85.5 -16.5t-74.5 -49.5l-28 27q44 40 88.5 60t101.5 20q96 0 151.5 -59t55.5 -154q0 -97 -51 -143t-133 -68z" />
    <glyph glyph-name="uni02A2" unicode="&#x2a2;" horiz-adv-x="431" 
d="M129 653.5q-44 -46.5 -44 -125.5q0 -80 40.5 -118t108.5 -56l64 -17v-129h72v-39h-72v-169h-47v169h-112v39h112v101l-30 8q-83 22 -134 68t-51 143q0 62 26 110.5t74.5 75.5t112.5 27q55 0 98 -20t86 -60l-27 -27q-38 33 -74 49.5t-81 16.5q-78 0 -122 -46.5z" />
    <glyph glyph-name="uni0261" unicode="&#x261;" horiz-adv-x="581" 
d="M471 522v-526q0 -97 -45.5 -148t-146.5 -51q-83 0 -145 37l17 32q27 -13 56.5 -21t69.5 -8q82 0 115 37.5t33 119.5v107q-24 -41 -63.5 -66.5t-95.5 -25.5q-59 0 -103 32t-67.5 91t-23.5 137q0 76 24.5 135.5t70.5 93.5t109 34q94 0 152 -76l3 66h40zM360.5 75
q35.5 26 64.5 78v257q-26 38 -60.5 60.5t-82.5 22.5t-84.5 -26.5t-57 -76.5t-20.5 -118q0 -105 40.5 -164t111.5 -59q53 0 88.5 26z" />
    <glyph glyph-name="uni01E5" unicode="&#x1e5;" horiz-adv-x="497" 
d="M526 -77h-57q-8 -61 -62.5 -93.5t-155.5 -32.5q-114 0 -164.5 34.5t-50.5 112.5h44q1 -40 17 -63t52.5 -33.5t101.5 -10.5q158 0 174 86h-156v39h155q-7 35 -39 53.5t-84 18.5h-85q-61 0 -94 25t-33 64q0 51 57 87q-45 23 -66 59t-21 89q0 78 51 126t136 48
q98 -1 140.5 6t84.5 24l15 -46q-45 -14 -142 -15q88 -42 88 -146q0 -77 -50 -123.5t-135 -46.5q-38 0 -69 11q-21 -11 -32.5 -28t-11.5 -36q0 -58 88 -58h86q69 0 112 -30.5t49 -81.5h57v-39zM144 257q38 -36 102 -36q67 0 103 35t36 100t-35 102t-103 37q-70 0 -105.5 -37
t-35.5 -100q0 -65 38 -101z" />
    <glyph glyph-name="h" unicode="h" horiz-adv-x="583" 
d="M441.5 490q36.5 -42 36.5 -118v-372h-46v366q0 128 -104 128q-53 0 -94 -29.5t-78 -83.5v-381h-46v735l46 6v-311q74 102 179 102q70 0 106.5 -42z" />
    <glyph glyph-name="hbar" unicode="&#x127;" horiz-adv-x="588" 
d="M446.5 490q36.5 -42 36.5 -118v-372h-46v366q0 128 -104 128q-53 0 -94 -29.5t-78 -83.5v-381h-46v620h-75v38h75v77l46 6v-83h172v-38h-172v-190q75 102 179 102q70 0 106.5 -42z" />
    <glyph glyph-name="uni021F" unicode="&#x21f;" horiz-adv-x="583" 
d="M441.5 490q36.5 -42 36.5 -118v-372h-46v366q0 128 -104 128q-53 0 -94 -29.5t-78 -83.5v-381h-46v735l46 6v-311q74 102 179 102q70 0 106.5 -42zM435 906l-127 -98h-27l-128 98l21 25l121 -79l119 79z" />
    <glyph glyph-name="hcircumflex" unicode="&#x125;" horiz-adv-x="583" 
d="M441.5 490q36.5 -42 36.5 -118v-372h-46v366q0 128 -104 128q-53 0 -94 -29.5t-78 -83.5v-381h-46v735l46 6v-311q74 102 179 102q70 0 106.5 -42zM295 894l-121 -80l-21 25l128 99h27l127 -99l-21 -25z" />
    <glyph glyph-name="uni1E25" unicode="&#x1e25;" horiz-adv-x="583" 
d="M441.5 490q36.5 -42 36.5 -118v-372h-46v366q0 128 -104 128q-53 0 -94 -29.5t-78 -83.5v-381h-46v735l46 6v-311q74 102 179 102q70 0 106.5 -42zM267.5 -150q-9.5 10 -9.5 25t9.5 25t26.5 10q16 0 26 -10t10 -25t-10 -25t-26 -10q-17 0 -26.5 10z" />
    <glyph glyph-name="uni0267" unicode="&#x267;" horiz-adv-x="583" 
d="M478 -76q0 -62 -31.5 -94.5t-84.5 -32.5q-54 0 -97 33l20 30q17 -11 34.5 -17t41.5 -6q71 0 71 86v443q0 128 -104 128q-53 0 -94 -29.5t-78 -83.5v-381h-46v612q0 60 37 94.5t101 34.5q62 0 120 -28l-16 -35q-52 23 -101 23q-95 0 -95 -91v-180q74 102 179 102
q70 0 106.5 -42t36.5 -118v-448z" />
    <glyph glyph-name="uni0266" unicode="&#x266;" horiz-adv-x="583" 
d="M441.5 490q36.5 -42 36.5 -118v-372h-46v366q0 128 -104 128q-53 0 -94 -29.5t-78 -83.5v-381h-46v612q0 60 37 94.5t101 34.5q62 0 120 -28l-16 -35q-52 23 -101 23q-95 0 -95 -91v-180q74 102 179 102q70 0 106.5 -42z" />
    <glyph glyph-name="uni0265" unicode="&#x265;" horiz-adv-x="583" 
d="M473 522v-725l-46 8v287q-74 -103 -179 -103q-70 0 -106.5 42.5t-36.5 118.5v372h46v-366q0 -128 104 -128q53 0 94 29.5t78 83.5v381h46z" />
    <glyph glyph-name="uni0195" unicode="&#x195;" horiz-adv-x="889" 
d="M804 262q0 -92 -28 -153t-74.5 -90.5t-103.5 -29.5q-73 0 -119.5 44t-46.5 125v208q0 128 -104 128q-53 0 -94 -29.5t-78 -83.5v-381h-46v735l46 6v-311q74 102 179 102q70 0 106.5 -42t36.5 -118v-211q0 -67 33 -99.5t88 -32.5q66 0 112 55.5t46 179.5q0 106 -26 258h47
q26 -147 26 -260z" />
    <glyph glyph-name="i" unicode="i" horiz-adv-x="266" 
d="M156 0h-46v522h46v-522zM159 734q10 -10 10 -25t-10 -25t-26 -10t-26 10t-10 25t10 25t26 10t26 -10z" />
    <glyph glyph-name="dotlessi" unicode="&#x131;" horiz-adv-x="266" 
d="M156 0h-46v522h46v-522z" />
    <glyph glyph-name="iacute" unicode="&#xed;" horiz-adv-x="266" 
d="M156 0h-46v522h46v-522zM227 732l-190 -84l-15 28l184 100z" />
    <glyph glyph-name="ibreve" unicode="&#x12d;" horiz-adv-x="266" 
d="M156 0h-46v522h46v-522zM50.5 684q-33.5 28 -40.5 75l32 7q20 -70 91 -70t91 70l32 -7q-7 -46 -40.5 -74.5t-82.5 -28.5t-82.5 28z" />
    <glyph glyph-name="uni01D0" unicode="&#x1d0;" horiz-adv-x="266" 
d="M156 0h-46v522h46v-522zM273 739l-127 -104h-27l-128 104l21 24l121 -84l119 84z" />
    <glyph glyph-name="icircumflex" unicode="&#xee;" horiz-adv-x="266" 
d="M156 0h-46v522h46v-522zM-9 672l127 103h27l128 -103l-21 -25l-120 84l-120 -84z" />
    <glyph glyph-name="uni0209" unicode="&#x209;" horiz-adv-x="266" 
d="M103 660l-31 -15l-88 136l43 23zM217 664l-31 -15l-80 132l43 22zM156 0h-46v522h46v-522z" />
    <glyph glyph-name="idieresis" unicode="&#xef;" horiz-adv-x="266" 
d="M156 0h-46v522h46v-522zM66.5 722.5q9.5 -9.5 9.5 -23.5t-9.5 -23.5t-24.5 -9.5t-24.5 9.5t-9.5 23.5t9.5 23.5t24.5 9.5t24.5 -9.5zM247.5 722.5q9.5 -9.5 9.5 -23.5t-9.5 -23.5t-23.5 -9.5q-15 0 -24.5 9.5t-9.5 23.5t9.5 23.5t24.5 9.5q14 0 23.5 -9.5z" />
    <glyph glyph-name="uni1E2F" unicode="&#x1e2f;" horiz-adv-x="266" 
d="M242 818l-115 -118l-22 20l105 128zM66.5 692.5q9.5 -9.5 9.5 -23.5t-9.5 -23.5t-24.5 -9.5t-24.5 9.5t-9.5 23.5t9.5 23.5t24.5 9.5t24.5 -9.5zM247.5 692.5q9.5 -9.5 9.5 -23.5t-9.5 -23.5t-23.5 -9.5q-15 0 -24.5 9.5t-9.5 23.5t9.5 23.5t24.5 9.5q14 0 23.5 -9.5z
M156 0h-46v522h46v-522z" />
    <glyph glyph-name="i.loclTRK" horiz-adv-x="266" 
d="M156 0h-46v522h46v-522zM159 734q10 -10 10 -25t-10 -25t-26 -10t-26 10t-10 25t10 25t26 10t26 -10z" />
    <glyph glyph-name="uni1ECB" unicode="&#x1ecb;" horiz-adv-x="266" 
d="M156 0h-46v522h46v-522zM159 734q10 -10 10 -25t-10 -25t-26 -10t-26 10t-10 25t10 25t26 10t26 -10zM106.5 -150q-9.5 10 -9.5 25t9.5 25t26.5 10q16 0 26 -10t10 -25t-10 -25t-26 -10q-17 0 -26.5 10z" />
    <glyph glyph-name="igrave" unicode="&#xec;" horiz-adv-x="266" 
d="M156 0h-46v522h46v-522zM237 676l-15 -28l-190 84l21 44z" />
    <glyph glyph-name="uni1EC9" unicode="&#x1ec9;" horiz-adv-x="266" 
d="M156 0h-46v522h46v-522zM110 698q33 2 51 12.5t18 35.5q0 20 -12.5 31t-35.5 11q-31 0 -58 -15l-14 30q36 21 77 21q40 0 63.5 -20.5t23.5 -55.5q0 -65 -73 -74v-56h-40v80z" />
    <glyph glyph-name="uni020B" unicode="&#x20b;" horiz-adv-x="266" 
d="M156 0h-46v522h46v-522zM215.5 708q33.5 -28 40.5 -74l-32 -7q-10 34 -33 52t-58 18t-58 -18t-33 -52l-32 7q7 46 40.5 74t82.5 28t82.5 -28z" />
    <glyph glyph-name="ij" unicode="&#x133;" horiz-adv-x="532" 
d="M156 0h-46v522h46v-522zM159 734q10 -10 10 -25t-10 -25t-26 -10t-26 10t-10 25t10 25t26 10t26 -10zM422 14q0 -66 -14 -105t-41 -62.5t-76 -46.5l-13 33q38 19 58 38.5t30 52t10 89.5v509h46v-508zM425 734q10 -10 10 -25t-10 -25t-26 -10t-26 10t-10 25t10 25t26 10
t26 -10z" />
    <glyph glyph-name="imacron" unicode="&#x12b;" horiz-adv-x="266" 
d="M156 0h-46v522h46v-522zM18 679v39h229v-39h-229z" />
    <glyph glyph-name="iogonek" unicode="&#x12f;" horiz-adv-x="266" 
d="M159 734q10 -10 10 -25t-10 -25t-26 -10t-26 10t-10 25t10 25t26 10t26 -10zM50 -158q16 -14 49 -14q25 0 58 6l-5 -40q-35 -7 -56 -7q-52 0 -79.5 25t-27.5 64q0 41 30 73t91 59v514h46v-522q-66 -30 -94 -56t-28 -63q0 -25 16 -39z" />
    <glyph glyph-name="uni0269" unicode="&#x269;" horiz-adv-x="281" 
d="M128 12.5q-23 23.5 -23 69.5v440h46v-438q0 -54 45 -54q18 0 37 7l13 -35q-28 -13 -55 -13q-40 0 -63 23.5z" />
    <glyph glyph-name="uni0268" unicode="&#x268;" horiz-adv-x="295" 
d="M121 684q-10 10 -10 25t10 25t26 10t26 -10t10 -25t-10 -25t-26 -10t-26 10zM276 263h-106v-263h-46v263h-105v40h105v219h46v-219h106v-40z" />
    <glyph glyph-name="itilde" unicode="&#x129;" horiz-adv-x="266" 
d="M156 0h-46v522h46v-522zM157 676.5q-16 6.5 -36 18.5q-30 19 -47 19t-29.5 -8.5t-27.5 -28.5l-29 15q37 60 86 60q15 0 28 -5.5t33 -17.5q18 -10 30.5 -15.5t25.5 -5.5q16 0 28.5 9.5t28.5 33.5l29 -15q-32 -66 -86 -66q-18 0 -34 6.5z" />
    <glyph glyph-name="j" unicode="j" horiz-adv-x="266" 
d="M156 14q0 -66 -14 -105t-41 -62.5t-76 -46.5l-13 33q38 19 58 38.5t30 52t10 89.5v509h46v-508zM159 734q10 -10 10 -25t-10 -25t-26 -10t-26 10t-10 25t10 25t26 10t26 -10z" />
    <glyph glyph-name="uni0237" unicode="&#x237;" horiz-adv-x="266" 
d="M156 14q0 -66 -14 -105t-41 -62.5t-76 -46.5l-13 33q38 19 58 38.5t30 52t10 89.5v509h46v-508z" />
    <glyph glyph-name="uni01F0" unicode="&#x1f0;" horiz-adv-x="266" 
d="M156 14q0 -66 -14 -105t-41 -62.5t-76 -46.5l-13 33q38 19 58 38.5t30 52t10 89.5v509h46v-508zM273 739l-127 -104h-27l-128 104l21 24l121 -84l119 84z" />
    <glyph glyph-name="jcircumflex" unicode="&#x135;" horiz-adv-x="266" 
d="M156 14q0 -66 -14 -105t-41 -62.5t-76 -46.5l-13 33q38 19 58 38.5t30 52t10 89.5v509h46v-508zM-9 672l127 103h27l128 -103l-21 -25l-120 84l-120 -84z" />
    <glyph glyph-name="uni029D" unicode="&#x29d;" horiz-adv-x="281" 
d="M122 684q-10 10 -10 25t10 25t26 10t26 -10t10 -25t-10 -25t-26 -10t-26 10zM260 -87q-47 21 -90 32q-5 -73 -40 -110.5t-101 -37.5q-51 0 -81.5 26.5t-30.5 67.5q0 48 37.5 76t98.5 28q32 0 72 -6v533h46v-542q56 -15 103 -38zM98.5 -137.5q23.5 28.5 25.5 91.5
q-36 6 -71 6q-47 0 -71 -17.5t-24 -49.5q0 -27 18.5 -43t51.5 -16q47 0 70.5 28.5z" />
    <glyph glyph-name="uni025F" unicode="&#x25f;" horiz-adv-x="295" 
d="M276 226h-103v-212q0 -66 -14 -105t-41 -62.5t-76 -46.5l-13 33q38 19 58 38.5t30 52t10 89.5v213h-108v39h108v257h46v-257h103v-39z" />
    <glyph glyph-name="uni0284" unicode="&#x284;" horiz-adv-x="295" 
d="M173 615v-578h106v-37h-106q-1 -61 -15.5 -97t-41 -58t-74.5 -45l-13 33q37 19 57 37t30 48.5t11 81.5h-105v37h105v577q0 62 31 94.5t84 32.5q55 0 98 -33l-20 -30q-19 12 -36 18t-40 6q-71 0 -71 -87z" />
    <glyph glyph-name="uni0249" unicode="&#x249;" horiz-adv-x="295" 
d="M276 226h-103v-212q0 -66 -14 -105t-41 -62.5t-76 -46.5l-13 33q38 19 58 38.5t30 52t10 89.5v213h-108v39h108v257h46v-257h103v-39zM176 734q10 -10 10 -25t-10 -25t-26 -10t-26 10t-10 25t10 25t26 10t26 -10z" />
    <glyph glyph-name="k" unicode="k" horiz-adv-x="480" 
d="M156 0h-46v735l46 6v-741zM217 287l252 -287h-56l-251 285l229 237h54z" />
    <glyph glyph-name="uni01E9" unicode="&#x1e9;" horiz-adv-x="480" 
d="M156 0h-46v735l46 6v-741zM217 287l252 -287h-56l-251 285l229 237h54zM406 906l-127 -98h-27l-128 98l21 25l121 -79l119 79z" />
    <glyph glyph-name="kcommaaccent" unicode="&#x137;" horiz-adv-x="480" 
d="M156 0h-46v735l46 6v-741zM217 287l252 -287h-56l-251 285l229 237h54zM292.5 -98q10.5 -11 10.5 -27q0 -11 -4 -22.5t-16 -39.5l-40 -86h-29l33 114q-22 11 -22 34q0 16 11.5 27t27.5 11q18 0 28.5 -11z" />
    <glyph glyph-name="kgreenlandic" unicode="&#x138;" horiz-adv-x="479" 
d="M156 0h-46v522h46v-522zM216 277l252 -277h-56l-251 275l229 247h55z" />
    <glyph glyph-name="uni0199" unicode="&#x199;" horiz-adv-x="480" 
d="M156 610v-610h-46v612q0 60 37 94.5t101 34.5q62 0 120 -28l-16 -35q-52 23 -101 23q-95 0 -95 -91zM469 0h-56l-251 285l229 237h54l-228 -235z" />
    <glyph glyph-name="uni029E" unicode="&#x29e;" horiz-adv-x="480" 
d="M263 234l-252 288h56l251 -285l-229 -237h-54zM324 522h46v-725l-46 8v717z" />
    <glyph glyph-name="l" unicode="l" horiz-adv-x="281" 
d="M128 12.5q-23 23.5 -23 69.5v653l46 6v-657q0 -54 45 -54q18 0 37 7l13 -35q-28 -13 -55 -13q-40 0 -63 23.5z" />
    <glyph glyph-name="lacute" unicode="&#x13a;" horiz-adv-x="281" 
d="M128 12.5q-23 23.5 -23 69.5v653l46 6v-657q0 -54 45 -54q18 0 37 7l13 -35q-28 -13 -55 -13q-40 0 -63 23.5zM230 887l-192 -77l-13 29l183 92z" />
    <glyph glyph-name="uni019B" unicode="&#x19b;" horiz-adv-x="463" 
d="M343.5 256q30.5 -92 57.5 -140t70 -107l-43 -17q-43 61 -70 110t-56.5 139t-58.5 234l-164 -483l-44 11l178 511h22q-16 76 -38 113l-70 -71l-35 14l84 87q-33 34 -97 49l7 36q77 -16 118 -57l68 72l29 -25l-74 -75q33 -49 55 -157q31 -152 61.5 -244z" />
    <glyph glyph-name="uni019A" unicode="&#x19a;" horiz-adv-x="295" 
d="M171 353v-269q0 -54 45 -54q17 0 38 7l13 -35q-28 -13 -56 -13q-39 0 -62.5 23.5t-23.5 69.5v271h-106v40h106v342l46 6v-348h105v-40h-105z" />
    <glyph glyph-name="uni026C" unicode="&#x26c;" horiz-adv-x="316" 
d="M284 2q-28 -13 -55 -13q-40 0 -63 23.5t-23 69.5v188q-62 1 -94.5 24.5t-32.5 69.5q0 40 28 64.5t70 24.5q8 0 29 -3v285l46 6v-435q34 1 84 10l5 -33q-48 -10 -89 -11v-188q0 -54 45 -54q18 0 37 7zM143 415q-16 2 -27 2q-27 0 -43 -13t-16 -39q0 -59 86 -59v109z" />
    <glyph glyph-name="lcaron" unicode="&#x13e;" horiz-adv-x="281" 
d="M128 12.5q-23 23.5 -23 69.5v653l46 6v-657q0 -54 45 -54q18 0 37 7l13 -35q-28 -13 -55 -13q-40 0 -63 23.5zM280 734l-35 -156l-30 4l19 158z" />
    <glyph glyph-name="uni1E3D" unicode="&#x1e3d;" horiz-adv-x="281" 
d="M128 12.5q-23 23.5 -23 69.5v653l46 6v-657q0 -54 45 -54q18 0 37 7l13 -35q-28 -13 -55 -13q-40 0 -63 23.5zM37 -174l127 104h27l128 -104l-21 -25l-120 85l-120 -85z" />
    <glyph glyph-name="lcommaaccent" unicode="&#x13c;" horiz-adv-x="281" 
d="M128 12.5q-23 23.5 -23 69.5v653l46 6v-657q0 -54 45 -54q18 0 37 7l13 -35q-28 -13 -55 -13q-40 0 -63 23.5zM207.5 -98q10.5 -11 10.5 -27q0 -11 -4 -22.5t-16 -39.5l-40 -86h-29l33 114q-22 11 -22 34q0 16 11.5 27t27.5 11q18 0 28.5 -11z" />
    <glyph glyph-name="uni0234" unicode="&#x234;" horiz-adv-x="358" 
d="M359 169q26 -25 26 -64q0 -52 -40 -84t-101 -32q-53 0 -89 27l-39 -78l-35 15l47 90q-23 34 -23 83v609l46 6v-618q0 -16 3 -30q25 50 57 75.5t78 25.5q44 0 70 -25zM315.5 50q26.5 20 26.5 55q0 24 -15 38t-40 14q-37 0 -61.5 -23.5t-52.5 -79.5q23 -24 71 -24
q45 0 71.5 20z" />
    <glyph glyph-name="ldot" unicode="&#x140;" horiz-adv-x="290" 
d="M128 12.5q-23 23.5 -23 69.5v653l46 6v-657q0 -54 45 -54q18 0 37 7l13 -35q-28 -13 -55 -13q-40 0 -63 23.5zM297 401q10 -10 10 -25t-10 -25t-26 -10t-26 10t-10 25t10 25t26 10t26 -10z" />
    <glyph glyph-name="uni1E37" unicode="&#x1e37;" horiz-adv-x="281" 
d="M128 12.5q-23 23.5 -23 69.5v653l46 6v-657q0 -54 45 -54q18 0 37 7l13 -35q-28 -13 -55 -13q-40 0 -63 23.5zM152.5 -150q-9.5 10 -9.5 25t9.5 25t26.5 10q16 0 26 -10t10 -25t-10 -25t-26 -10q-17 0 -26.5 10z" />
    <glyph glyph-name="uni026E" unicode="&#x26e;" horiz-adv-x="617" 
d="M584 2q0 -60 -26 -106.5t-74.5 -72.5t-114.5 -26q-56 0 -99.5 18t-81.5 55l27 27q34 -31 70.5 -45t82.5 -14q81 0 124.5 44t43.5 120q0 84 -45.5 121t-144.5 37h-58v38l216 283h-353v-397q0 -54 45 -54q18 0 37 7l13 -35q-28 -13 -55 -13q-40 0 -63 23.5t-23 69.5v653
l46 6v-219h408v-37l-222 -287h12q235 0 235 -196z" />
    <glyph glyph-name="uni026D" unicode="&#x26d;" horiz-adv-x="266" 
d="M323 -170q-43 -33 -97 -33q-53 0 -84.5 32.5t-31.5 94.5v811l46 6v-818q0 -46 19.5 -66t51.5 -20q24 0 41.5 6t34.5 17z" />
    <glyph glyph-name="uni01C9" unicode="&#x1c9;" horiz-adv-x="557" 
d="M128 12.5q-23 23.5 -23 69.5v653l46 6v-657q0 -54 45 -54q18 0 37 7l13 -35q-28 -13 -55 -13q-40 0 -63 23.5zM447 14q0 -66 -14 -105t-41 -62.5t-76 -46.5l-13 33q38 19 58 38.5t30 52t10 89.5v509h46v-508zM450 734q10 -10 10 -25t-10 -25t-26 -10t-26 10t-10 25t10 25
t26 10t26 -10z" />
    <glyph glyph-name="uni026B" unicode="&#x26b;" horiz-adv-x="314" 
d="M168 329v-245q0 -54 45 -54q19 0 38 7l13 -35q-28 -13 -55 -13q-40 0 -63.5 23.5t-23.5 69.5v271q-30 16 -48 16q-23 0 -38 -11t-32 -33l-30 16q21 33 44 51t58 18q23 0 46 -10v335l46 6v-364q20 -11 34 -17t27 -6q22 0 36 10t31 32l29 -16q-20 -32 -42 -49.5t-56 -17.5
q-27 0 -59 16z" />
    <glyph glyph-name="uni02AA" unicode="&#x2aa;" horiz-adv-x="639" 
d="M166.5 37.5q-61.5 48.5 -61.5 135.5v562l46 6v-568q0 -69 47.5 -106t140.5 -37q198 0 198 112q0 31 -11 51.5t-38.5 35.5t-78.5 29q-81 22 -114 54.5t-33 87.5q0 58 46.5 95t113.5 37q45 0 83.5 -14t75.5 -43l-23 -31q-35 26 -66 37.5t-69 11.5q-49 0 -81 -25.5
t-32 -67.5q0 -41 26 -63.5t95 -42.5q83 -23 118.5 -57t35.5 -93q0 -75 -64.5 -115t-181.5 -40q-111 0 -172.5 48.5z" />
    <glyph glyph-name="lslash" unicode="&#x142;" horiz-adv-x="295" 
d="M240 37l13 -35q-28 -13 -55 -13q-40 0 -63 23.5t-23 69.5v248l-60 -37l-19 31l79 49v362l46 6v-340l100 61l18 -31l-118 -73v-274q0 -54 44 -54q19 0 38 7z" />
    <glyph glyph-name="uni02AB" unicode="&#x2ab;" horiz-adv-x="621" 
d="M587 485l-302 -444h298l-5 -41h-337q-26 -11 -50 -11q-40 0 -63 23.5t-23 69.5v653l46 6v-657q0 -54 45 -54q18 0 37 7l299 444h-274v41h329v-37z" />
    <glyph glyph-name="m" unicode="m" horiz-adv-x="851" 
d="M711 489.5q35 -42.5 35 -117.5v-372h-46v366q0 65 -24.5 96.5t-69.5 31.5q-46 0 -84 -29.5t-71 -83.5v-381h-46v366q0 65 -24.5 96.5t-69.5 31.5q-46 0 -84 -29.5t-71 -83.5v-381h-46v522h40l4 -93q31 48 73 75.5t91 27.5q51 0 84 -28t44 -79q32 50 74.5 78.5t92.5 28.5
q63 0 98 -42.5z" />
    <glyph glyph-name="uni1E3F" unicode="&#x1e3f;" horiz-adv-x="851" 
d="M711 489.5q35 -42.5 35 -117.5v-372h-46v366q0 65 -24.5 96.5t-69.5 31.5q-46 0 -84 -29.5t-71 -83.5v-381h-46v366q0 65 -24.5 96.5t-69.5 31.5q-46 0 -84 -29.5t-71 -83.5v-381h-46v522h40l4 -93q31 48 73 75.5t91 27.5q51 0 84 -28t44 -79q32 50 74.5 78.5t92.5 28.5
q63 0 98 -42.5zM521 732l-190 -84l-15 28l184 100z" />
    <glyph glyph-name="uni1E41" unicode="&#x1e41;" horiz-adv-x="851" 
d="M711 489.5q35 -42.5 35 -117.5v-372h-46v366q0 65 -24.5 96.5t-69.5 31.5q-46 0 -84 -29.5t-71 -83.5v-381h-46v366q0 65 -24.5 96.5t-69.5 31.5q-46 0 -84 -29.5t-71 -83.5v-381h-46v522h40l4 -93q31 48 73 75.5t91 27.5q51 0 84 -28t44 -79q32 50 74.5 78.5t92.5 28.5
q63 0 98 -42.5zM452 734q10 -10 10 -25t-10 -25t-26 -10t-26 10t-10 25t10 25t26 10t26 -10z" />
    <glyph glyph-name="uni0271" unicode="&#x271;" horiz-adv-x="851" 
d="M746 -76q0 -62 -31.5 -94.5t-84.5 -32.5q-54 0 -97 33l20 30q17 -11 34.5 -17t41.5 -6q32 0 51.5 20t19.5 66v443q0 65 -24.5 96.5t-69.5 31.5q-46 0 -84 -29.5t-71 -83.5v-381h-46v366q0 65 -24.5 96.5t-69.5 31.5q-46 0 -84 -29.5t-71 -83.5v-381h-46v522h40l4 -93
q31 48 73 75.5t91 27.5q51 0 84 -28t44 -79q32 50 74.5 78.5t92.5 28.5q63 0 98 -42.5t35 -117.5v-448z" />
    <glyph glyph-name="uni0270" unicode="&#x270;" horiz-adv-x="851" 
d="M695 -195v285q-30 -47 -71.5 -73.5t-90.5 -26.5q-50 0 -83.5 28t-44.5 79q-32 -50 -74.5 -78.5t-92.5 -28.5q-63 0 -98 42.5t-35 117.5v372h46v-366q0 -65 24.5 -96.5t69.5 -31.5q46 0 84 29.5t71 83.5v381h46v-366q0 -65 24.5 -96.5t69.5 -31.5q46 0 84 29.5t71 83.5
v381h46v-725z" />
    <glyph glyph-name="uni026F" unicode="&#x26f;" horiz-adv-x="851" 
d="M741 522v-522h-39l-5 92q-31 -48 -73 -75.5t-91 -27.5q-50 0 -83.5 28.5t-44.5 79.5q-33 -50 -75 -79t-92 -29q-63 0 -98 43t-35 118v372h46v-366q0 -65 24.5 -96.5t69.5 -31.5q46 0 84 29.5t71 83.5v381h46v-366q0 -65 24.5 -96.5t69.5 -31.5q46 0 84 29.5t71 83.5v381
h46z" />
    <glyph glyph-name="n" unicode="n" horiz-adv-x="583" 
d="M442 490.5q36 -41.5 36 -118.5v-372h-46v366q0 66 -26 97t-78 31q-53 0 -94 -29t-78 -84v-381h-46v522h40l4 -94q74 104 181 104q71 0 107 -41.5z" />
    <glyph glyph-name="nacute" unicode="&#x144;" horiz-adv-x="583" 
d="M442 490.5q36 -41.5 36 -118.5v-372h-46v366q0 66 -26 97t-78 31q-53 0 -94 -29t-78 -84v-381h-46v522h40l4 -94q74 104 181 104q71 0 107 -41.5zM392 732l-190 -84l-15 28l184 100z" />
    <glyph glyph-name="nacute.loclPLK" horiz-adv-x="583" 
d="M442 490.5q36 -41.5 36 -118.5v-372h-46v366q0 66 -26 97t-78 31q-53 0 -94 -29t-78 -84v-381h-46v522h40l4 -94q74 104 181 104q71 0 107 -41.5zM403 731l-117 -153l-25 16l102 164z" />
    <glyph glyph-name="napostrophe" unicode="&#x149;" horiz-adv-x="657" 
d="M125 731q11 -11 11 -27q0 -13 -10 -36q-10 -24 -11 -26l-35 -90h-29l28 118q-21 9 -21 34q0 16 10.5 27t27.5 11q18 0 29 -11zM516 490.5q36 -41.5 36 -118.5v-372h-46v366q0 66 -25.5 97t-77.5 31q-54 0 -95 -29t-78 -84v-381h-46v522h40l4 -93q74 103 181 103
q71 0 107 -41.5z" />
    <glyph glyph-name="ncaron" unicode="&#x148;" horiz-adv-x="583" 
d="M442 490.5q36 -41.5 36 -118.5v-372h-46v366q0 66 -26 97t-78 31q-53 0 -94 -29t-78 -84v-381h-46v522h40l4 -94q74 104 181 104q71 0 107 -41.5zM438 739l-127 -104h-27l-128 104l21 24l121 -84l119 84z" />
    <glyph glyph-name="uni1E4B" unicode="&#x1e4b;" horiz-adv-x="583" 
d="M442 490.5q36 -41.5 36 -118.5v-372h-46v366q0 66 -26 97t-78 31q-53 0 -94 -29t-78 -84v-381h-46v522h40l4 -94q74 104 181 104q71 0 107 -41.5zM149 -174l127 104h27l128 -104l-21 -25l-120 85l-120 -85z" />
    <glyph glyph-name="ncommaaccent" unicode="&#x146;" horiz-adv-x="583" 
d="M442 490.5q36 -41.5 36 -118.5v-372h-46v366q0 66 -26 97t-78 31q-53 0 -94 -29t-78 -84v-381h-46v522h40l4 -94q74 104 181 104q71 0 107 -41.5zM318.5 -98q10.5 -11 10.5 -27q0 -11 -4 -22.5t-16 -39.5l-40 -86h-29l33 114q-22 11 -22 34q0 16 11.5 27t27.5 11
q18 0 28.5 -11z" />
    <glyph glyph-name="uni0235" unicode="&#x235;" horiz-adv-x="685" 
d="M686 169q26 -25 26 -64q0 -52 -39.5 -84t-100.5 -32q-54 0 -90 27l-39 -78l-35 15l47 90q-23 36 -23 83v240q0 66 -26 97t-78 31q-53 0 -94 -29t-78 -84v-381h-46v522h40l4 -94q74 104 181 104q71 0 107 -41.5t36 -118.5v-249q0 -16 3 -30q26 50 57.5 75.5t77.5 25.5
q44 0 70 -25zM642.5 50q26.5 20 26.5 55q0 24 -15 38t-40 14q-37 0 -61.5 -24t-52.5 -79q23 -24 72 -24q44 0 70.5 20z" />
    <glyph glyph-name="uni1E45" unicode="&#x1e45;" horiz-adv-x="583" 
d="M442 490.5q36 -41.5 36 -118.5v-372h-46v366q0 66 -26 97t-78 31q-53 0 -94 -29t-78 -84v-381h-46v522h40l4 -94q74 104 181 104q71 0 107 -41.5zM323 734q10 -10 10 -25t-10 -25t-26 -10t-26 10t-10 25t10 25t26 10t26 -10z" />
    <glyph glyph-name="uni1E47" unicode="&#x1e47;" horiz-adv-x="583" 
d="M442 490.5q36 -41.5 36 -118.5v-372h-46v366q0 66 -26 97t-78 31q-53 0 -94 -29t-78 -84v-381h-46v522h40l4 -94q74 104 181 104q71 0 107 -41.5zM263.5 -150q-9.5 10 -9.5 25t9.5 25t26.5 10q16 0 26 -10t10 -25t-10 -25t-26 -10q-17 0 -26.5 10z" />
    <glyph glyph-name="uni01F9" unicode="&#x1f9;" horiz-adv-x="583" 
d="M442 490.5q36 -41.5 36 -118.5v-372h-46v366q0 66 -26 97t-78 31q-53 0 -94 -29t-78 -84v-381h-46v522h40l4 -94q74 104 181 104q71 0 107 -41.5zM402 676l-15 -28l-190 84l21 44z" />
    <glyph glyph-name="eng" unicode="&#x14b;" horiz-adv-x="583" 
d="M478 -76q0 -62 -31.5 -94.5t-84.5 -32.5q-54 0 -97 33l20 30q17 -11 34.5 -17t41.5 -6q32 0 51.5 20t19.5 66v443q0 66 -26 97t-78 31q-53 0 -94 -29t-78 -84v-381h-46v522h40l4 -94q74 104 181 104q71 0 107 -41.5t36 -118.5v-448z" />
    <glyph glyph-name="uni0272" unicode="&#x272;" horiz-adv-x="583" 
d="M442 490.5q36 -41.5 36 -118.5v-372h-46v366q0 66 -26 97t-78 31q-53 0 -94 -29t-78 -84v-457q0 -62 -31.5 -94.5t-84.5 -32.5q-54 0 -97 33l20 30q17 -11 34.5 -17t41.5 -6q32 0 51.5 20t19.5 66v599h40l4 -94q74 104 181 104q71 0 107 -41.5z" />
    <glyph glyph-name="uni0273" unicode="&#x273;" horiz-adv-x="583" 
d="M645 -170q-43 -33 -97 -33q-53 0 -84.5 32.5t-31.5 94.5v442q0 66 -26 97t-78 31q-53 0 -94 -29t-78 -84v-381h-46v522h40l4 -94q74 104 181 104q71 0 107 -41.5t36 -118.5v-449q0 -46 19.5 -66t51.5 -20q24 0 41.5 6t34.5 17z" />
    <glyph glyph-name="uni01CC" unicode="&#x1cc;" horiz-adv-x="849" 
d="M442 490.5q36 -41.5 36 -118.5v-372h-46v366q0 66 -26 97t-78 31q-53 0 -94 -29t-78 -84v-381h-46v522h40l4 -94q74 104 181 104q71 0 107 -41.5zM739 14q0 -66 -14 -105t-41 -62.5t-76 -46.5l-13 33q38 19 58 38.5t30 52t10 89.5v509h46v-508zM742 734q10 -10 10 -25
t-10 -25t-26 -10t-26 10t-10 25t10 25t26 10t26 -10z" />
    <glyph glyph-name="uni019E" unicode="&#x19e;" horiz-adv-x="583" 
d="M442 490.5q36 -41.5 36 -118.5v-575l-46 8v561q0 66 -26 97t-78 31q-53 0 -94 -29t-78 -84v-381h-46v522h40l4 -94q74 104 181 104q71 0 107 -41.5z" />
    <glyph glyph-name="ntilde" unicode="&#xf1;" horiz-adv-x="583" 
d="M442 490.5q36 -41.5 36 -118.5v-372h-46v366q0 66 -26 97t-78 31q-53 0 -94 -29t-78 -84v-381h-46v522h40l4 -94q74 104 181 104q71 0 107 -41.5zM322 676.5q-16 6.5 -36 18.5q-30 19 -47 19t-29.5 -8.5t-27.5 -28.5l-29 15q37 60 86 60q15 0 28 -5.5t33 -17.5
q18 -10 30.5 -15.5t25.5 -5.5q16 0 28.5 9.5t28.5 33.5l29 -15q-32 -66 -86 -66q-18 0 -34 6.5z" />
    <glyph glyph-name="o" unicode="o" horiz-adv-x="567" 
d="M443 461.5q57 -70.5 57 -198.5t-58 -201t-159 -73t-158.5 72.5t-57.5 198.5q0 127 58.5 199.5t158.5 72.5q102 0 159 -70.5zM160 432.5q-45 -59.5 -45 -172.5q0 -111 44 -171t124 -60q79 0 124 60t45 174q0 112 -44 170.5t-124 58.5q-79 0 -124 -59.5z" />
    <glyph glyph-name="oacute" unicode="&#xf3;" horiz-adv-x="567" 
d="M443 461.5q57 -70.5 57 -198.5t-58 -201t-159 -73t-158.5 72.5t-57.5 198.5q0 127 58.5 199.5t158.5 72.5q102 0 159 -70.5zM160 432.5q-45 -59.5 -45 -172.5q0 -111 44 -171t124 -60q79 0 124 60t45 174q0 112 -44 170.5t-124 58.5q-79 0 -124 -59.5zM378 732l-190 -84
l-15 28l184 100z" />
    <glyph glyph-name="oacute.loclPLK" horiz-adv-x="567" 
d="M443 461.5q57 -70.5 57 -198.5t-58 -201t-159 -73t-158.5 72.5t-57.5 198.5q0 127 58.5 199.5t158.5 72.5q102 0 159 -70.5zM160 432.5q-45 -59.5 -45 -172.5q0 -111 44 -171t124 -60q79 0 124 60t45 174q0 112 -44 170.5t-124 58.5q-79 0 -124 -59.5zM390 731l-117 -153
l-25 16l102 164z" />
    <glyph glyph-name="uni0275" unicode="&#x275;" horiz-adv-x="567" 
d="M443 461.5q57 -70.5 57 -198.5t-58 -201t-159 -73t-158.5 72.5t-57.5 198.5q0 127 58.5 199.5t158.5 72.5q102 0 159 -70.5zM164.5 439q-44.5 -53 -48.5 -155h336q-4 102 -48 155t-120 53q-75 0 -119.5 -53zM404 84.5q44 55.5 48 161.5h-337q3 -105 47 -161t121 -56
t121 55.5z" />
    <glyph glyph-name="obreve" unicode="&#x14f;" horiz-adv-x="567" 
d="M443 461.5q57 -70.5 57 -198.5t-58 -201t-159 -73t-158.5 72.5t-57.5 198.5q0 127 58.5 199.5t158.5 72.5q102 0 159 -70.5zM160 432.5q-45 -59.5 -45 -172.5q0 -111 44 -171t124 -60q79 0 124 60t45 174q0 112 -44 170.5t-124 58.5q-79 0 -124 -59.5zM201.5 684
q-33.5 28 -40.5 75l32 7q20 -70 91 -70t91 70l32 -7q-7 -46 -40.5 -74.5t-82.5 -28.5t-82.5 28z" />
    <glyph glyph-name="uni01D2" unicode="&#x1d2;" horiz-adv-x="567" 
d="M443 461.5q57 -70.5 57 -198.5t-58 -201t-159 -73t-158.5 72.5t-57.5 198.5q0 127 58.5 199.5t158.5 72.5q102 0 159 -70.5zM160 432.5q-45 -59.5 -45 -172.5q0 -111 44 -171t124 -60q79 0 124 60t45 174q0 112 -44 170.5t-124 58.5q-79 0 -124 -59.5zM424 739l-127 -104
h-27l-128 104l21 24l121 -84l119 84z" />
    <glyph glyph-name="ocircumflex" unicode="&#xf4;" horiz-adv-x="567" 
d="M443 461.5q57 -70.5 57 -198.5t-58 -201t-159 -73t-158.5 72.5t-57.5 198.5q0 127 58.5 199.5t158.5 72.5q102 0 159 -70.5zM160 432.5q-45 -59.5 -45 -172.5q0 -111 44 -171t124 -60q79 0 124 60t45 174q0 112 -44 170.5t-124 58.5q-79 0 -124 -59.5zM142 672l127 103
h27l128 -103l-21 -25l-120 84l-120 -84z" />
    <glyph glyph-name="uni1ED1" unicode="&#x1ed1;" horiz-adv-x="567" 
d="M507 803l-115 -118l-22 20l105 128zM283 666l-121 -80l-21 25l128 99h27l127 -99l-21 -25zM443 461.5q57 -70.5 57 -198.5t-58 -201t-159 -73t-158.5 72.5t-57.5 198.5q0 127 58.5 199.5t158.5 72.5q102 0 159 -70.5zM160 432.5q-45 -59.5 -45 -172.5q0 -111 44 -171
t124 -60q79 0 124 60t45 174q0 112 -44 170.5t-124 58.5q-79 0 -124 -59.5z" />
    <glyph glyph-name="uni1ED9" unicode="&#x1ed9;" horiz-adv-x="567" 
d="M443 461.5q57 -70.5 57 -198.5t-58 -201t-159 -73t-158.5 72.5t-57.5 198.5q0 127 58.5 199.5t158.5 72.5q102 0 159 -70.5zM160 432.5q-45 -59.5 -45 -172.5q0 -111 44 -171t124 -60q79 0 124 60t45 174q0 112 -44 170.5t-124 58.5q-79 0 -124 -59.5zM142 672l127 103
h27l128 -103l-21 -25l-120 84l-120 -84zM257.5 -150q-9.5 10 -9.5 25t9.5 25t26.5 10q16 0 26 -10t10 -25t-10 -25t-26 -10q-17 0 -26.5 10z" />
    <glyph glyph-name="uni1ED3" unicode="&#x1ed3;" horiz-adv-x="567" 
d="M200 705l-22 -20l-114 118l32 30zM283 666l-121 -80l-21 25l128 99h27l127 -99l-21 -25zM443 461.5q57 -70.5 57 -198.5t-58 -201t-159 -73t-158.5 72.5t-57.5 198.5q0 127 58.5 199.5t158.5 72.5q102 0 159 -70.5zM160 432.5q-45 -59.5 -45 -172.5q0 -111 44 -171
t124 -60q79 0 124 60t45 174q0 112 -44 170.5t-124 58.5q-79 0 -124 -59.5z" />
    <glyph glyph-name="uni1ED5" unicode="&#x1ed5;" horiz-adv-x="567" 
d="M381 759q33 2 51 12.5t18 35.5q0 20 -12.5 31t-35.5 11q-31 0 -58 -15l-14 30q36 21 77 21q40 0 63.5 -20.5t23.5 -55.5q0 -65 -73 -74v-56h-40v80zM283 666l-121 -80l-21 25l128 99h27l127 -99l-21 -25zM443 461.5q57 -70.5 57 -198.5t-58 -201t-159 -73t-158.5 72.5
t-57.5 198.5q0 127 58.5 199.5t158.5 72.5q102 0 159 -70.5zM160 432.5q-45 -59.5 -45 -172.5q0 -111 44 -171t124 -60q79 0 124 60t45 174q0 112 -44 170.5t-124 58.5q-79 0 -124 -59.5z" />
    <glyph glyph-name="uni1ED7" unicode="&#x1ed7;" horiz-adv-x="567" 
d="M307 746.5q-16 6.5 -36 18.5q-30 19 -47 19t-29.5 -8.5t-27.5 -28.5l-29 15q37 60 86 60q15 0 28 -5.5t33 -17.5q18 -10 30.5 -15.5t25.5 -5.5q16 0 28.5 9.5t28.5 33.5l29 -15q-32 -66 -86 -66q-18 0 -34 6.5zM283 656l-121 -80l-21 25l128 99h27l127 -99l-21 -25z
M443 461.5q57 -70.5 57 -198.5t-58 -201t-159 -73t-158.5 72.5t-57.5 198.5q0 127 58.5 199.5t158.5 72.5q102 0 159 -70.5zM160 432.5q-45 -59.5 -45 -172.5q0 -111 44 -171t124 -60q79 0 124 60t45 174q0 112 -44 170.5t-124 58.5q-79 0 -124 -59.5z" />
    <glyph glyph-name="uni020D" unicode="&#x20d;" horiz-adv-x="567" 
d="M443 461.5q57 -70.5 57 -198.5t-58 -201t-159 -73t-158.5 72.5t-57.5 198.5q0 127 58.5 199.5t158.5 72.5q102 0 159 -70.5zM160 432.5q-45 -59.5 -45 -172.5q0 -111 44 -171t124 -60q79 0 124 60t45 174q0 112 -44 170.5t-124 58.5q-79 0 -124 -59.5zM254 660l-31 -15
l-88 136l43 23zM368 664l-31 -15l-80 132l43 22z" />
    <glyph glyph-name="odieresis" unicode="&#xf6;" horiz-adv-x="567" 
d="M443 461.5q57 -70.5 57 -198.5t-58 -201t-159 -73t-158.5 72.5t-57.5 198.5q0 127 58.5 199.5t158.5 72.5q102 0 159 -70.5zM160 432.5q-45 -59.5 -45 -172.5q0 -111 44 -171t124 -60q79 0 124 60t45 174q0 112 -44 170.5t-124 58.5q-79 0 -124 -59.5zM217.5 722.5
q9.5 -9.5 9.5 -23.5t-9.5 -23.5t-24.5 -9.5t-24.5 9.5t-9.5 23.5t9.5 23.5t24.5 9.5t24.5 -9.5zM398.5 722.5q9.5 -9.5 9.5 -23.5t-9.5 -23.5t-23.5 -9.5q-15 0 -24.5 9.5t-9.5 23.5t9.5 23.5t24.5 9.5q14 0 23.5 -9.5z" />
    <glyph glyph-name="uni022B" unicode="&#x22b;" horiz-adv-x="567" 
d="M171 766v39h229v-39h-229zM217.5 692.5q9.5 -9.5 9.5 -23.5t-9.5 -23.5t-24.5 -9.5t-24.5 9.5t-9.5 23.5t9.5 23.5t24.5 9.5t24.5 -9.5zM398.5 692.5q9.5 -9.5 9.5 -23.5t-9.5 -23.5t-23.5 -9.5q-15 0 -24.5 9.5t-9.5 23.5t9.5 23.5t24.5 9.5q14 0 23.5 -9.5zM443 461.5
q57 -70.5 57 -198.5t-58 -201t-159 -73t-158.5 72.5t-57.5 198.5q0 127 58.5 199.5t158.5 72.5q102 0 159 -70.5zM160 432.5q-45 -59.5 -45 -172.5q0 -111 44 -171t124 -60q79 0 124 60t45 174q0 112 -44 170.5t-124 58.5q-79 0 -124 -59.5z" />
    <glyph glyph-name="uni022F" unicode="&#x22f;" horiz-adv-x="567" 
d="M443 461.5q57 -70.5 57 -198.5t-58 -201t-159 -73t-158.5 72.5t-57.5 198.5q0 127 58.5 199.5t158.5 72.5q102 0 159 -70.5zM160 432.5q-45 -59.5 -45 -172.5q0 -111 44 -171t124 -60q79 0 124 60t45 174q0 112 -44 170.5t-124 58.5q-79 0 -124 -59.5zM310 734
q10 -10 10 -25t-10 -25t-26 -10t-26 10t-10 25t10 25t26 10t26 -10z" />
    <glyph glyph-name="uni0231" unicode="&#x231;" horiz-adv-x="567" 
d="M170 753v39h229v-39h-229zM310 684q10 -10 10 -25t-10 -25t-26 -10t-26 10t-10 25t10 25t26 10t26 -10zM443 461.5q57 -70.5 57 -198.5t-58 -201t-159 -73t-158.5 72.5t-57.5 198.5q0 127 58.5 199.5t158.5 72.5q102 0 159 -70.5zM160 432.5q-45 -59.5 -45 -172.5
q0 -111 44 -171t124 -60q79 0 124 60t45 174q0 112 -44 170.5t-124 58.5q-79 0 -124 -59.5z" />
    <glyph glyph-name="uni1ECD" unicode="&#x1ecd;" horiz-adv-x="567" 
d="M443 461.5q57 -70.5 57 -198.5t-58 -201t-159 -73t-158.5 72.5t-57.5 198.5q0 127 58.5 199.5t158.5 72.5q102 0 159 -70.5zM160 432.5q-45 -59.5 -45 -172.5q0 -111 44 -171t124 -60q79 0 124 60t45 174q0 112 -44 170.5t-124 58.5q-79 0 -124 -59.5zM257.5 -150
q-9.5 10 -9.5 25t9.5 25t26.5 10q16 0 26 -10t10 -25t-10 -25t-26 -10q-17 0 -26.5 10z" />
    <glyph glyph-name="ograve" unicode="&#xf2;" horiz-adv-x="567" 
d="M443 461.5q57 -70.5 57 -198.5t-58 -201t-159 -73t-158.5 72.5t-57.5 198.5q0 127 58.5 199.5t158.5 72.5q102 0 159 -70.5zM160 432.5q-45 -59.5 -45 -172.5q0 -111 44 -171t124 -60q79 0 124 60t45 174q0 112 -44 170.5t-124 58.5q-79 0 -124 -59.5zM388 676l-15 -28
l-190 84l21 44z" />
    <glyph glyph-name="uni1ECF" unicode="&#x1ecf;" horiz-adv-x="567" 
d="M443 461.5q57 -70.5 57 -198.5t-58 -201t-159 -73t-158.5 72.5t-57.5 198.5q0 127 58.5 199.5t158.5 72.5q102 0 159 -70.5zM160 432.5q-45 -59.5 -45 -172.5q0 -111 44 -171t124 -60q79 0 124 60t45 174q0 112 -44 170.5t-124 58.5q-79 0 -124 -59.5zM261 698
q33 2 51 12.5t18 35.5q0 20 -12.5 31t-35.5 11q-31 0 -58 -15l-14 30q36 21 77 21q40 0 63.5 -20.5t23.5 -55.5q0 -65 -73 -74v-56h-40v80z" />
    <glyph glyph-name="ohorn" unicode="&#x1a1;" horiz-adv-x="574" 
d="M522.5 464q-20.5 -22 -61.5 -29q39 -66 39 -172q0 -128 -58 -201t-159 -73t-158.5 72.5t-57.5 198.5q0 127 58.5 199.5t158.5 72.5q102 0 158 -70q33 5 47 20t14 42q0 37 -14 72l36 11q18 -34 18 -82q0 -39 -20.5 -61zM407 89q45 60 45 174q0 112 -44 170.5t-124 58.5
q-79 0 -124 -59.5t-45 -172.5q0 -111 44 -171t124 -60q79 0 124 60z" />
    <glyph glyph-name="uni1EDB" unicode="&#x1edb;" horiz-adv-x="574" 
d="M188 648l-15 28l184 100l21 -44zM522.5 464q-20.5 -22 -61.5 -29q39 -66 39 -172q0 -128 -58 -201t-159 -73t-158.5 72.5t-57.5 198.5q0 127 58.5 199.5t158.5 72.5q102 0 158 -70q33 5 47 20t14 42q0 37 -14 72l36 11q18 -34 18 -82q0 -39 -20.5 -61zM407 89
q45 60 45 174q0 112 -44 170.5t-124 58.5q-79 0 -124 -59.5t-45 -172.5q0 -111 44 -171t124 -60q79 0 124 60z" />
    <glyph glyph-name="uni1EE3" unicode="&#x1ee3;" horiz-adv-x="574" 
d="M522.5 464q-20.5 -22 -61.5 -29q39 -66 39 -172q0 -128 -58 -201t-159 -73t-158.5 72.5t-57.5 198.5q0 127 58.5 199.5t158.5 72.5q102 0 158 -70q33 5 47 20t14 42q0 37 -14 72l36 11q18 -34 18 -82q0 -39 -20.5 -61zM407 89q45 60 45 174q0 112 -44 170.5t-124 58.5
q-79 0 -124 -59.5t-45 -172.5q0 -111 44 -171t124 -60q79 0 124 60zM310 -100q10 -10 10 -25t-10 -25t-26 -10q-17 0 -26.5 10t-9.5 25t9.5 25t26.5 10q16 0 26 -10z" />
    <glyph glyph-name="uni1EDD" unicode="&#x1edd;" horiz-adv-x="574" 
d="M373 648l-190 84l21 44l184 -100zM522.5 464q-20.5 -22 -61.5 -29q39 -66 39 -172q0 -128 -58 -201t-159 -73t-158.5 72.5t-57.5 198.5q0 127 58.5 199.5t158.5 72.5q102 0 158 -70q33 5 47 20t14 42q0 37 -14 72l36 11q18 -34 18 -82q0 -39 -20.5 -61zM407 89
q45 60 45 174q0 112 -44 170.5t-124 58.5q-79 0 -124 -59.5t-45 -172.5q0 -111 44 -171t124 -60q79 0 124 60z" />
    <glyph glyph-name="uni1EDF" unicode="&#x1edf;" horiz-adv-x="574" 
d="M224 773l-14 30q36 21 77 21q40 0 63.5 -20.5t23.5 -55.5q0 -65 -73 -74v-56h-40v80q33 2 51 12.5t18 35.5q0 20 -12.5 31t-35.5 11q-31 0 -58 -15zM522.5 464q-20.5 -22 -61.5 -29q39 -66 39 -172q0 -128 -58 -201t-159 -73t-158.5 72.5t-57.5 198.5q0 127 58.5 199.5
t158.5 72.5q102 0 158 -70q33 5 47 20t14 42q0 37 -14 72l36 11q18 -34 18 -82q0 -39 -20.5 -61zM407 89q45 60 45 174q0 112 -44 170.5t-124 58.5q-79 0 -124 -59.5t-45 -172.5q0 -111 44 -171t124 -60q79 0 124 60z" />
    <glyph glyph-name="uni1EE1" unicode="&#x1ee1;" horiz-adv-x="574" 
d="M195.5 705.5q-12.5 -8.5 -27.5 -28.5l-29 15q37 60 86 60q15 0 28 -5.5t33 -17.5q18 -10 30.5 -15.5t25.5 -5.5q16 0 28.5 9.5t28.5 33.5l29 -15q-32 -66 -86 -66q-18 0 -34 6.5t-36 18.5q-30 19 -47 19t-29.5 -8.5zM522.5 464q-20.5 -22 -61.5 -29q39 -66 39 -172
q0 -128 -58 -201t-159 -73t-158.5 72.5t-57.5 198.5q0 127 58.5 199.5t158.5 72.5q102 0 158 -70q33 5 47 20t14 42q0 37 -14 72l36 11q18 -34 18 -82q0 -39 -20.5 -61zM407 89q45 60 45 174q0 112 -44 170.5t-124 58.5q-79 0 -124 -59.5t-45 -172.5q0 -111 44 -171t124 -60
q79 0 124 60z" />
    <glyph glyph-name="ohungarumlaut" unicode="&#x151;" horiz-adv-x="567" 
d="M443 461.5q57 -70.5 57 -198.5t-58 -201t-159 -73t-158.5 72.5t-57.5 198.5q0 127 58.5 199.5t158.5 72.5q102 0 159 -70.5zM160 432.5q-45 -59.5 -45 -172.5q0 -111 44 -171t124 -60q79 0 124 60t45 174q0 112 -44 170.5t-124 58.5q-79 0 -124 -59.5zM439 781l-88 -136
l-31 15l76 144zM318 781l-81 -132l-31 15l69 139z" />
    <glyph glyph-name="uni01A3" unicode="&#x1a3;" horiz-adv-x="757" 
d="M612.5 496.5q34.5 -35.5 34.5 -104.5v-595l-46 8v587q0 101 -90 101q-45 0 -83 -16q35 -34 53.5 -88.5t18.5 -125.5q0 -128 -58 -201t-159 -73t-158.5 72.5t-57.5 198.5q0 127 58.5 199.5t158.5 72.5q64 0 112 -30q57 30 119 30q63 0 97.5 -35.5zM408 433.5
q-44 58.5 -124 58.5q-79 0 -124 -59.5t-45 -172.5q0 -111 44 -171t124 -60q79 0 124 60t45 174q0 112 -44 170.5z" />
    <glyph glyph-name="uni020F" unicode="&#x20f;" horiz-adv-x="567" 
d="M443 461.5q57 -70.5 57 -198.5t-58 -201t-159 -73t-158.5 72.5t-57.5 198.5q0 127 58.5 199.5t158.5 72.5q102 0 159 -70.5zM160 432.5q-45 -59.5 -45 -172.5q0 -111 44 -171t124 -60q79 0 124 60t45 174q0 112 -44 170.5t-124 58.5q-79 0 -124 -59.5zM366.5 708
q33.5 -28 40.5 -74l-32 -7q-10 34 -33 52t-58 18t-58 -18t-33 -52l-32 7q7 46 40.5 74t82.5 28t82.5 -28z" />
    <glyph glyph-name="omacron" unicode="&#x14d;" horiz-adv-x="567" 
d="M443 461.5q57 -70.5 57 -198.5t-58 -201t-159 -73t-158.5 72.5t-57.5 198.5q0 127 58.5 199.5t158.5 72.5q102 0 159 -70.5zM160 432.5q-45 -59.5 -45 -172.5q0 -111 44 -171t124 -60q79 0 124 60t45 174q0 112 -44 170.5t-124 58.5q-79 0 -124 -59.5zM169 679v39h229
v-39h-229z" />
    <glyph glyph-name="uni1E53" unicode="&#x1e53;" horiz-adv-x="567" 
d="M388 793l-192 -77l-13 29l183 92zM169 622v39h229v-39h-229zM443 461.5q57 -70.5 57 -198.5t-58 -201t-159 -73t-158.5 72.5t-57.5 198.5q0 127 58.5 199.5t158.5 72.5q102 0 159 -70.5zM160 432.5q-45 -59.5 -45 -172.5q0 -111 44 -171t124 -60q79 0 124 60t45 174
q0 112 -44 170.5t-124 58.5q-79 0 -124 -59.5z" />
    <glyph glyph-name="uni1E51" unicode="&#x1e51;" horiz-adv-x="567" 
d="M385 745l-13 -29l-192 77l22 44zM169 622v39h229v-39h-229zM443 461.5q57 -70.5 57 -198.5t-58 -201t-159 -73t-158.5 72.5t-57.5 198.5q0 127 58.5 199.5t158.5 72.5q102 0 159 -70.5zM160 432.5q-45 -59.5 -45 -172.5q0 -111 44 -171t124 -60q79 0 124 60t45 174
q0 112 -44 170.5t-124 58.5q-79 0 -124 -59.5z" />
    <glyph glyph-name="uni0277" unicode="&#x277;" horiz-adv-x="746" 
d="M603.5 453q75.5 -79 75.5 -217q0 -132 -49 -189.5t-123 -57.5q-56 0 -91.5 30t-42.5 92q-22 -122 -137 -122q-78 0 -123.5 61t-45.5 188q0 137 76.5 215.5t230.5 78.5t229.5 -79zM632 235q0 124 -63 191t-195 67t-196 -66.5t-64 -190.5q0 -110 34.5 -158.5t90.5 -48.5
q50 0 80.5 35t30.5 115v130l45 7v-138q0 -80 29.5 -114.5t77.5 -34.5q130 0 130 206z" />
    <glyph glyph-name="uni01EB" unicode="&#x1eb;" horiz-adv-x="567" 
d="M258 -56q-28 -26 -28 -63q0 -25 16 -39t49 -14q25 0 58 6l-5 -40q-35 -7 -56 -7q-52 0 -79.5 25t-27.5 64q0 35 21 62.5t63 51.5q-95 5 -148.5 76.5t-53.5 193.5q0 127 58.5 199.5t158.5 72.5q102 0 159 -70.5t57 -198.5q0 -104 -39.5 -172.5t-109.5 -90.5
q-65 -30 -93 -56zM159 89q44 -60 124 -60q79 0 124 60t45 174q0 112 -44 170.5t-124 58.5q-79 0 -124 -59.5t-45 -172.5q0 -111 44 -171z" />
    <glyph glyph-name="uni01ED" unicode="&#x1ed;" horiz-adv-x="567" 
d="M398 679h-229v39h229v-39zM258 -56q-28 -26 -28 -63q0 -25 16 -39t49 -14q25 0 58 6l-5 -40q-35 -7 -56 -7q-52 0 -79.5 25t-27.5 64q0 35 21 62.5t63 51.5q-95 5 -148.5 76.5t-53.5 193.5q0 127 58.5 199.5t158.5 72.5q102 0 159 -70.5t57 -198.5q0 -104 -39.5 -172.5
t-109.5 -90.5q-65 -30 -93 -56zM159 89q44 -60 124 -60q79 0 124 60t45 174q0 112 -44 170.5t-124 58.5q-79 0 -124 -59.5t-45 -172.5q0 -111 44 -171z" />
    <glyph glyph-name="uni0254" unicode="&#x254;" horiz-adv-x="465" 
d="M34 47l24 30q27 -23 58 -35t70 -13q76 0 120 60.5t44 173.5q0 112 -41.5 170.5t-116.5 58.5q-39 0 -68.5 -10.5t-62.5 -33.5l-23 30q34 27 71 40.5t84 13.5q95 0 150 -70.5t55 -198.5q0 -84 -26 -146t-74 -95t-112 -33q-85 0 -152 58z" />
    <glyph glyph-name="oslash" unicode="&#xf8;" horiz-adv-x="567" 
d="M471.5 415.5q28.5 -62.5 28.5 -152.5q0 -128 -58 -201t-159 -73q-32 0 -65 10l-42 -122l-39 11l43 126q-54 30 -83.5 93.5t-29.5 152.5q0 127 58.5 199.5t158.5 72.5q35 0 67 -9l39 123l40 -12l-41 -127q54 -29 82.5 -91.5zM136 129.5q21 -52.5 61 -77.5l143 432
q-23 8 -56 8q-79 0 -124 -59.5t-45 -172.5q0 -78 21 -130.5zM407 89q45 60 45 174q0 156 -80 206l-143 -432q26 -8 54 -8q79 0 124 60z" />
    <glyph glyph-name="oslashacute" unicode="&#x1ff;" horiz-adv-x="567" 
d="M471.5 415.5q28.5 -62.5 28.5 -152.5q0 -128 -58 -201t-159 -73q-32 0 -65 10l-42 -122l-39 11l43 126q-54 30 -83.5 93.5t-29.5 152.5q0 127 58.5 199.5t158.5 72.5q35 0 67 -9l39 123l40 -12l-41 -127q54 -29 82.5 -91.5zM136 129.5q21 -52.5 61 -77.5l143 432
q-23 8 -56 8q-79 0 -124 -59.5t-45 -172.5q0 -78 21 -130.5zM407 89q45 60 45 174q0 156 -80 206l-143 -432q26 -8 54 -8q79 0 124 60zM378 732l-190 -84l-15 28l184 100z" />
    <glyph glyph-name="otilde" unicode="&#xf5;" horiz-adv-x="567" 
d="M443 461.5q57 -70.5 57 -198.5t-58 -201t-159 -73t-158.5 72.5t-57.5 198.5q0 127 58.5 199.5t158.5 72.5q102 0 159 -70.5zM160 432.5q-45 -59.5 -45 -172.5q0 -111 44 -171t124 -60q79 0 124 60t45 174q0 112 -44 170.5t-124 58.5q-79 0 -124 -59.5zM308 676.5
q-16 6.5 -36 18.5q-30 19 -47 19t-29.5 -8.5t-27.5 -28.5l-29 15q37 60 86 60q15 0 28 -5.5t33 -17.5q18 -10 30.5 -15.5t25.5 -5.5q16 0 28.5 9.5t28.5 33.5l29 -15q-32 -66 -86 -66q-18 0 -34 6.5z" />
    </font>
</defs>
</svg>
